  0
SECTION
  2
HEADER
  9
$ACADVER
  1
AC1015
  9
$ACADMAINTVER
 70
    20
  9
$DWGCODEPAGE
  3
ANSI_936
  9
$INSBASE
 10
0.0
 20
0.0
 30
0.0
  9
$EXTMIN
 10
3782.103550546044
 20
3885.527033749589
 30
-0.1564443669012689
  9
$EXTMAX
 10
4314.344093131772
 20
4291.952752817022
 30
0.0391289964554744
  9
$LIMMIN
 10
0.0
 20
0.0
  9
$LIMMAX
 10
420.0
 20
297.0
  9
$ORTHOMODE
 70
     0
  9
$REGENMODE
 70
     1
  9
$FILLMODE
 70
     0
  9
$QTEXTMODE
 70
     0
  9
$MIRRTEXT
 70
     1
  9
$LTSCALE
 40
25.4
  9
$ATTMODE
 70
     1
  9
$TEXTSIZE
 40
2.5
  9
$TRACEWID
 40
1.0
  9
$TEXTSTYLE
  7
STANDARD
  9
$CLAYER
  8
标注
  9
$CELTYPE
  6
BYLAYER
  9
$CECOLOR
 62
   256
  9
$CELTSCALE
 40
1.0
  9
$DISPSILH
 70
     0
  9
$DIMSCALE
 40
1.0
  9
$DIMASZ
 40
2.5
  9
$DIMEXO
 40
0.625
  9
$DIMDLI
 40
3.75
  9
$DIMRND
 40
0.0
  9
$DIMDLE
 40
0.0
  9
$DIMEXE
 40
1.25
  9
$DIMTP
 40
0.0
  9
$DIMTM
 40
0.0
  9
$DIMTXT
 40
2.5
  9
$DIMCEN
 40
2.5
  9
$DIMTSZ
 40
0.0
  9
$DIMTOL
 70
     0
  9
$DIMLIM
 70
     0
  9
$DIMTIH
 70
     0
  9
$DIMTOH
 70
     0
  9
$DIMSE1
 70
     0
  9
$DIMSE2
 70
     0
  9
$DIMTAD
 70
     1
  9
$DIMZIN
 70
     8
  9
$DIMBLK
  1

  9
$DIMASO
 70
     1
  9
$DIMSHO
 70
     1
  9
$DIMPOST
  1

  9
$DIMAPOST
  1

  9
$DIMALT
 70
     0
  9
$DIMALTD
 70
     4
  9
$DIMALTF
 40
0.0394
  9
$DIMLFAC
 40
1.0
  9
$DIMTOFL
 70
     1
  9
$DIMTVP
 40
0.0
  9
$DIMTIX
 70
     0
  9
$DIMSOXD
 70
     0
  9
$DIMSAH
 70
     0
  9
$DIMBLK1
  1

  9
$DIMBLK2
  1

  9
$DIMSTYLE
  2
STANDARD
  9
$DIMCLRD
 70
     0
  9
$DIMCLRE
 70
     0
  9
$DIMCLRT
 70
     0
  9
$DIMTFAC
 40
1.0
  9
$DIMGAP
 40
0.625
  9
$DIMJUST
 70
     0
  9
$DIMSD1
 70
     0
  9
$DIMSD2
 70
     0
  9
$DIMTOLJ
 70
     1
  9
$DIMTZIN
 70
     0
  9
$DIMALTZ
 70
     0
  9
$DIMALTTZ
 70
     0
  9
$DIMUPT
 70
     0
  9
$DIMDEC
 70
     4
  9
$DIMTDEC
 70
     4
  9
$DIMALTU
 70
     8
  9
$DIMALTTD
 70
     4
  9
$DIMTXSTY
  7
STANDARD
  9
$DIMAUNIT
 70
     0
  9
$DIMADEC
 70
     0
  9
$DIMALTRND
 40
0.0
  9
$DIMAZIN
 70
     0
  9
$DIMDSEP
 70
    46
  9
$DIMATFIT
 70
     3
  9
$DIMFRAC
 70
     0
  9
$DIMLDRBLK
  1

  9
$DIMLUNIT
 70
     2
  9
$DIMLWD
 70
    -2
  9
$DIMLWE
 70
    -2
  9
$DIMTMOVE
 70
     0
  9
$LUNITS
 70
     2
  9
$LUPREC
 70
     4
  9
$SKETCHINC
 40
1.0
  9
$FILLETRAD
 40
2.0
  9
$AUNITS
 70
     0
  9
$AUPREC
 70
     0
  9
$MENU
  1
.
  9
$ELEVATION
 40
0.0
  9
$PELEVATION
 40
0.0
  9
$THICKNESS
 40
0.0
  9
$LIMCHECK
 70
     0
  9
$CHAMFERA
 40
10.0
  9
$CHAMFERB
 40
10.0
  9
$CHAMFERC
 40
20.0
  9
$CHAMFERD
 40
0.0
  9
$SKPOLY
 70
     0
  9
$TDCREATE
 40
2453155.539762732
  9
$TDUCREATE
 40
2453155.206429398
  9
$TDUPDATE
 40
2456561.408738403
  9
$TDUUPDATE
 40
2456561.075405070
  9
$TDINDWG
 40
1.1658163657
  9
$TDUSRTIMER
 40
1.1658161806
  9
$USRTIMER
 70
     1
  9
$ANGBASE
 50
0.0
  9
$ANGDIR
 70
     0
  9
$PDMODE
 70
     0
  9
$PDSIZE
 40
0.0
  9
$PLINEWID
 40
0.0
  9
$SPLFRAME
 70
     0
  9
$SPLINETYPE
 70
     6
  9
$SPLINESEGS
 70
     8
  9
$HANDSEED
  5
32B3
  9
$SURFTAB1
 70
     6
  9
$SURFTAB2
 70
     6
  9
$SURFTYPE
 70
     6
  9
$SURFU
 70
     6
  9
$SURFV
 70
     6
  9
$UCSBASE
  2

  9
$UCSNAME
  2

  9
$UCSORG
 10
0.0
 20
0.0
 30
0.0
  9
$UCSXDIR
 10
1.0
 20
0.0
 30
0.0
  9
$UCSYDIR
 10
0.0
 20
1.0
 30
0.0
  9
$UCSORTHOREF
  2

  9
$UCSORTHOVIEW
 70
     0
  9
$UCSORGTOP
 10
0.0
 20
0.0
 30
0.0
  9
$UCSORGBOTTOM
 10
0.0
 20
0.0
 30
0.0
  9
$UCSORGLEFT
 10
0.0
 20
0.0
 30
0.0
  9
$UCSORGRIGHT
 10
0.0
 20
0.0
 30
0.0
  9
$UCSORGFRONT
 10
0.0
 20
0.0
 30
0.0
  9
$UCSORGBACK
 10
0.0
 20
0.0
 30
0.0
  9
$PUCSBASE
  2

  9
$PUCSNAME
  2

  9
$PUCSORG
 10
0.0
 20
0.0
 30
0.0
  9
$PUCSXDIR
 10
1.0
 20
0.0
 30
0.0
  9
$PUCSYDIR
 10
0.0
 20
1.0
 30
0.0
  9
$PUCSORTHOREF
  2

  9
$PUCSORTHOVIEW
 70
     0
  9
$PUCSORGTOP
 10
0.0
 20
0.0
 30
0.0
  9
$PUCSORGBOTTOM
 10
0.0
 20
0.0
 30
0.0
  9
$PUCSORGLEFT
 10
0.0
 20
0.0
 30
0.0
  9
$PUCSORGRIGHT
 10
0.0
 20
0.0
 30
0.0
  9
$PUCSORGFRONT
 10
0.0
 20
0.0
 30
0.0
  9
$PUCSORGBACK
 10
0.0
 20
0.0
 30
0.0
  9
$USERI1
 70
     0
  9
$USERI2
 70
     0
  9
$USERI3
 70
     0
  9
$USERI4
 70
     0
  9
$USERI5
 70
     0
  9
$USERR1
 40
0.0
  9
$USERR2
 40
0.0
  9
$USERR3
 40
0.0
  9
$USERR4
 40
0.0
  9
$USERR5
 40
0.0
  9
$WORLDVIEW
 70
     1
  9
$SHADEDGE
 70
     3
  9
$SHADEDIF
 70
    70
  9
$TILEMODE
 70
     1
  9
$MAXACTVP
 70
    48
  9
$PINSBASE
 10
0.0
 20
0.0
 30
0.0
  9
$PLIMCHECK
 70
     0
  9
$PEXTMIN
 10
1.000000000000000E+20
 20
1.000000000000000E+20
 30
1.000000000000000E+20
  9
$PEXTMAX
 10
-1.000000000000000E+20
 20
-1.000000000000000E+20
 30
-1.000000000000000E+20
  9
$PLIMMIN
 10
0.0
 20
0.0
  9
$PLIMMAX
 10
420.0
 20
297.0
  9
$UNITMODE
 70
     0
  9
$VISRETAIN
 70
     1
  9
$PLINEGEN
 70
     0
  9
$PSLTSCALE
 70
     1
  9
$TREEDEPTH
 70
  3020
  9
$CMLSTYLE
  2
STANDARD
  9
$CMLJUST
 70
     0
  9
$CMLSCALE
 40
20.0
  9
$PROXYGRAPHICS
 70
     1
  9
$MEASUREMENT
 70
     1
  9
$CELWEIGHT
370
    -1
  9
$ENDCAPS
280
     0
  9
$JOINSTYLE
280
     0
  9
$LWDISPLAY
290
     0
  9
$INSUNITS
 70
     0
  9
$HYPERLINKBASE
  1

  9
$STYLESHEET
  1
acad.ctb
  9
$XEDIT
290
     1
  9
$CEPSNTYPE
380
     0
  9
$PSTYLEMODE
290
     1
  9
$FINGERPRINTGUID
  2
{AEA4C562-6A69-4577-B3D9-11D4D737C7CC}
  9
$VERSIONGUID
  2
{D952EC56-C848-433E-8858-C0714F35E2BD}
  9
$EXTNAMES
290
     1
  9
$PSVPSCALE
 40
0.0
  9
$OLESTARTUP
290
     0
  0
ENDSEC
  0
SECTION
  2
CLASSES
  0
CLASS
  1
ACDBDICTIONARYWDFLT
  2
AcDbDictionaryWithDefault
  3
ObjectDBX Classes
 90
        0
280
     0
281
     0
  0
CLASS
  1
DICTIONARYVAR
  2
AcDbDictionaryVar
  3
ObjectDBX Classes
 90
        0
280
     0
281
     0
  0
CLASS
  1
ACDBPLACEHOLDER
  2
AcDbPlaceHolder
  3
ObjectDBX Classes
 90
        0
280
     0
281
     0
  0
CLASS
  1
LAYOUT
  2
AcDbLayout
  3
ObjectDBX Classes
 90
        0
280
     0
281
     0
  0
CLASS
  1
DIMASSOC
  2
AcDbDimAssoc
  3
"AcDbDimAssoc|Product Desc:     AcDim ARX App For Dimension|Company:          Autodesk, Inc.|WEB Address:      www.autodesk.com"
 90
    32768
280
     0
281
     0
  0
CLASS
  1
MATERIAL
  2
AcDbMaterial
  3
ObjectDBX Classes
 90
     1153
280
     0
281
     0
  0
CLASS
  1
SORTENTSTABLE
  2
AcDbSortentsTable
  3
ObjectDBX Classes
 90
    32768
280
     0
281
     0
  0
CLASS
  1
VISUALSTYLE
  2
AcDbVisualStyle
  3
ObjectDBX Classes
 90
     4095
280
     0
281
     0
  0
CLASS
  1
TABLESTYLE
  2
AcDbTableStyle
  3
ObjectDBX Classes
 90
     4095
280
     0
281
     0
  0
CLASS
  1
SCALE
  2
AcDbScale
  3
ObjectDBX Classes
 90
     1153
280
     0
281
     0
  0
CLASS
  1
MLEADERSTYLE
  2
AcDbMLeaderStyle
  3
ACDB_MLEADERSTYLE_CLASS
 90
     4095
280
     0
281
     0
  0
CLASS
  1
CELLSTYLEMAP
  2
AcDbCellStyleMap
  3
ObjectDBX Classes
 90
     1152
280
     0
281
     0
  0
ENDSEC
  0
SECTION
  2
TABLES
  0
TABLE
  2
VPORT
  5
8
330
0
100
AcDbSymbolTable
 70
     1
  0
VPORT
  5
323A
330
8
100
AcDbSymbolTableRecord
100
AcDbViewportTableRecord
  2
*Active
 70
     0
 10
0.0
 20
0.0
 11
1.0
 21
1.0
 12
4037.700565333707
 22
4091.401490166818
 13
0.0
 23
0.0
 14
10.0
 24
10.0
 15
10.0
 25
10.0
 16
0.0
 26
0.0
 36
1.0
 17
0.0
 27
0.0
 37
0.0
 40
657.7652626885865
 41
2.679133858267716
 42
50.0
 43
0.0
 44
0.0
 50
0.0
 51
0.0
 71
     0
 72
   100
 73
     1
 74
     1
 75
     0
 76
     0
 77
     0
 78
     0
281
     0
 65
     1
110
0.0
120
0.0
130
0.0
111
1.0
121
0.0
131
0.0
112
0.0
122
1.0
132
0.0
 79
     0
146
0.0
  0
ENDTAB
  0
TABLE
  2
LTYPE
  5
5
330
0
100
AcDbSymbolTable
 70
     6
  0
LTYPE
  5
12
330
5
100
AcDbSymbolTableRecord
100
AcDbLinetypeTableRecord
  2
BYBLOCK
 70
     0
  3

 72
    65
 73
     0
 40
0.0
  0
LTYPE
  5
13
330
5
100
AcDbSymbolTableRecord
100
AcDbLinetypeTableRecord
  2
BYLAYER
 70
     0
  3

 72
    65
 73
     0
 40
0.0
  0
LTYPE
  5
14
330
5
100
AcDbSymbolTableRecord
100
AcDbLinetypeTableRecord
  2
CONTINUOUS
 70
     0
  3
Solid line
 72
    65
 73
     0
 40
0.0
  0
LTYPE
  5
80
330
5
100
AcDbSymbolTableRecord
100
AcDbLinetypeTableRecord
  2
CENTER2
 70
     0
  3
___ _ ___ _ ___ _ ___ _ ___ _ ___ _ ___ _ ___ _
 72
    65
 73
     4
 40
1.125
 49
0.75
 74
     0
 49
-0.125
 74
     0
 49
0.125
 74
     0
 49
-0.125
 74
     0
  0
LTYPE
  5
18C
330
5
100
AcDbSymbolTableRecord
100
AcDbLinetypeTableRecord
  2
DASHED2
 70
     0
  3
_ _ _ _ _ _ _ _ _ _ _ _ _ _ _ _ _ _ _ _ _ _ _ _
 72
    65
 73
     2
 40
0.375
 49
0.25
 74
     0
 49
-0.125
 74
     0
  0
LTYPE
  5
7A4
330
5
100
AcDbSymbolTableRecord
100
AcDbLinetypeTableRecord
  2
PHANTOM2
 70
     0
  3
___ _ _ ___ _ _ ___ _ _ ___ _ _ ___ _ _ ___ _ _
 72
    65
 73
     6
 40
1.25
 49
0.625
 74
     0
 49
-0.125
 74
     0
 49
0.125
 74
     0
 49
-0.125
 74
     0
 49
0.125
 74
     0
 49
-0.125
 74
     0
  0
LTYPE
  5
7A5
330
5
100
AcDbSymbolTableRecord
100
AcDbLinetypeTableRecord
  2
CENTER
 70
     0
  3
Center ____ _ ____ _ ____ _ ____ _ ____ _ ____
 72
    65
 73
     4
 40
2.0
 49
1.25
 74
     0
 49
-0.25
 74
     0
 49
0.25
 74
     0
 49
-0.25
 74
     0
  0
LTYPE
  5
198B
330
5
100
AcDbSymbolTableRecord
100
AcDbLinetypeTableRecord
  2
HIDDEN
 70
     0
  3
Hidden __ __ __ __ __ __ __ __ __ __ __ __ __ _
 72
    65
 73
     2
 40
0.375
 49
0.25
 74
     0
 49
-0.125
 74
     0
  0
ENDTAB
  0
TABLE
  2
LAYER
  5
2
102
{ACAD_XDICTIONARY
360
9C9
102
}
330
0
100
AcDbSymbolTable
 70
    11
  0
LAYER
  5
E
102
{ACAD_XDICTIONARY
360
327C
102
}
330
2
100
AcDbSymbolTableRecord
100
AcDbLayerTableRecord
  2
0
 70
     0
 62
     5
  6
CONTINUOUS
370
    -3
390
176
  0
LAYER
  5
81
102
{ACAD_XDICTIONARY
360
327E
102
}
330
2
100
AcDbSymbolTableRecord
100
AcDbLayerTableRecord
  2
CENTER
 70
     0
 62
     1
  6
CENTER2
370
    -3
390
176
  0
LAYER
  5
82
102
{ACAD_XDICTIONARY
360
3280
102
}
330
2
100
AcDbSymbolTableRecord
100
AcDbLayerTableRecord
  2
DIM
 70
     0
 62
     1
  6
CONTINUOUS
370
    -3
390
176
  0
LAYER
  5
83
330
2
100
AcDbSymbolTableRecord
100
AcDbLayerTableRecord
  2
DEFPOINTS
 70
     0
 62
     7
  6
CONTINUOUS
290
     0
370
    -3
390
176
  0
LAYER
  5
18D
102
{ACAD_XDICTIONARY
360
3282
102
}
330
2
100
AcDbSymbolTableRecord
100
AcDbLayerTableRecord
  2
DESHED
 70
     0
 62
   190
  6
DASHED2
370
    -3
390
176
  0
LAYER
  5
7A6
102
{ACAD_XDICTIONARY
360
3284
102
}
330
2
100
AcDbSymbolTableRecord
100
AcDbLayerTableRecord
  2
HATCH
 70
     0
 62
     3
  6
CONTINUOUS
370
    -3
390
176
  0
LAYER
  5
F76
102
{ACAD_XDICTIONARY
360
3286
102
}
330
2
100
AcDbSymbolTableRecord
100
AcDbLayerTableRecord
  2
中心线
 70
     0
 62
     1
  6
CENTER
370
    -3
390
176
  0
LAYER
  5
125C
102
{ACAD_XDICTIONARY
360
3288
102
}
330
2
100
AcDbSymbolTableRecord
100
AcDbLayerTableRecord
  2
标注
 70
     0
 62
     1
  6
CONTINUOUS
370
    -3
390
176
  0
LAYER
  5
198C
102
{ACAD_XDICTIONARY
360
328A
102
}
330
2
100
AcDbSymbolTableRecord
100
AcDbLayerTableRecord
  2
实体
 70
     0
 62
     5
  6
CONTINUOUS
370
    -3
390
176
  0
LAYER
  5
198D
102
{ACAD_XDICTIONARY
360
328C
102
}
330
2
100
AcDbSymbolTableRecord
100
AcDbLayerTableRecord
  2
虚线
 70
     0
 62
   190
  6
HIDDEN
370
    -3
390
176
  0
LAYER
  5
31A6
102
{ACAD_XDICTIONARY
360
328E
102
}
330
2
100
AcDbSymbolTableRecord
100
AcDbLayerTableRecord
  2
图框
 70
     0
 62
    80
  6
CONTINUOUS
370
    -3
390
176
  0
ENDTAB
  0
TABLE
  2
STYLE
  5
3
330
0
100
AcDbSymbolTable
 70
     2
  0
STYLE
  5
F
330
3
100
AcDbSymbolTableRecord
100
AcDbTextStyleTableRecord
  2
STANDARD
 70
     0
 40
0.0
 41
1.0
 50
0.0
 71
     0
 42
2.5
  3
SimSun.ttf
  4

1001
ACAD
1000
SimSun
1071
    34306
  0
STYLE
  5
195
330
3
100
AcDbSymbolTableRecord
100
AcDbTextStyleTableRecord
  2

 70
     1
 40
0.0
 41
1.0
 50
0.0
 71
     0
 42
2.5
  3
ltypeshp.shx
  4

  0
ENDTAB
  0
TABLE
  2
VIEW
  5
6
330
0
100
AcDbSymbolTable
 70
     0
  0
ENDTAB
  0
TABLE
  2
UCS
  5
7
330
0
100
AcDbSymbolTable
 70
     0
  0
ENDTAB
  0
TABLE
  2
APPID
  5
9
330
0
100
AcDbSymbolTable
 70
     3
  0
APPID
  5
10
330
9
100
AcDbSymbolTableRecord
100
AcDbRegAppTableRecord
  2
ACAD
 70
     0
  0
APPID
  5
2BB
330
9
100
AcDbSymbolTableRecord
100
AcDbRegAppTableRecord
  2
DCO15
 70
     0
  0
APPID
  5
3273
330
9
100
AcDbSymbolTableRecord
100
AcDbRegAppTableRecord
  2
ACAD_MLEADERVER
 70
     0
  0
ENDTAB
  0
TABLE
  2
DIMSTYLE
  5
A
330
0
100
AcDbSymbolTable
 70
    12
100
AcDbDimStyleTable
 71
     4
340
12D2
340
1D
340
84
340
205
  0
DIMSTYLE
105
1D
330
A
100
AcDbSymbolTableRecord
100
AcDbDimStyleTableRecord
  2
STANDARD
 70
     0
340
F
  0
DIMSTYLE
105
84
102
{ACAD_REACTORS
330
8D
330
8B
330
86
330
95
330
89
330
90
330
8F
330
9C
330
88
330
87
102
}
330
A
100
AcDbSymbolTableRecord
100
AcDbDimStyleTableRecord
  2
B
 70
     0
 40
7.62
 41
1.5
 42
0.3125
 43
0.7
 44
1.0
 73
     0
 74
     0
 77
     1
140
1.5
141
0.045
147
0.3
271
     1
340
F
  0
DIMSTYLE
105
204
330
A
100
AcDbSymbolTableRecord
100
AcDbDimStyleTableRecord
  2
b1
 70
     0
  3
"
  4
"
 40
10.0
 41
1.5
 42
0.3125
 43
0.7
 44
1.0
 47
1.0
 48
1.0
 77
     1
140
3.0
141
0.045
143
0.03937
144
0.03937
146
0.8
147
0.8
271
     3
272
     3
273
     5
277
     5
340
F
  0
DIMSTYLE
105
205
330
A
100
AcDbSymbolTableRecord
100
AcDbDimStyleTableRecord
  2
B4
 70
     0
 40
7.62
 41
2.5
 42
0.3125
 43
0.7
 44
1.0
 77
     1
140
3.299999999999999
141
0.045
147
0.8
271
     1
272
     1
289
     2
340
F
  0
DIMSTYLE
105
206
330
A
100
AcDbSymbolTableRecord
100
AcDbDimStyleTableRecord
  2
b44
 70
     0
  3
"
  4
"
 40
10.0
 41
2.1
 42
0.3125
 43
0.7
 44
1.0
 47
1.0
 48
1.0
 77
     1
140
3.0
141
0.045
143
0.03937
144
0.03937
146
0.8
147
0.8
271
     3
272
     3
273
     5
277
     5
340
F
  0
DIMSTYLE
105
54B
330
A
100
AcDbSymbolTableRecord
100
AcDbDimStyleTableRecord
  2
bb
 70
     0
  4
"
 40
7.62
 41
1.5
 42
0.3125
 43
0.7
 44
1.0
 47
2.0
 48
2.0
 71
     1
 73
     0
 74
     0
 77
     1
140
1.5
141
0.045
143
0.03937
146
0.7
147
0.3
170
     1
271
     1
272
     1
273
     5
284
     8
286
     8
289
     2
340
F
  0
DIMSTYLE
105
9BD
330
A
100
AcDbSymbolTableRecord
100
AcDbDimStyleTableRecord
  2
b2
 70
     0
  4
"
 40
7.62
 41
2.0
 42
0.8
 43
0.7
 44
1.5
 47
1.0
 48
1.0
 71
     1
 73
     0
 74
     0
 77
     1
 78
     1
140
1.9
141
0.0
143
0.03937
147
0.6
170
     1
179
     1
271
     1
272
     1
273
     5
279
     1
284
    10
288
     1
340
F
  0
DIMSTYLE
105
9BE
330
A
100
AcDbSymbolTableRecord
100
AcDbDimStyleTableRecord
  2
C
 70
     0
  3
%%c<>
 40
7.62
 41
1.5
 42
0.3125
 43
0.7
 44
1.0
 73
     0
 74
     0
 77
     1
140
1.3
141
0.045
147
0.3
271
     1
289
     2
340
F
  0
DIMSTYLE
105
9BF
330
A
100
AcDbSymbolTableRecord
100
AcDbDimStyleTableRecord
  2
B$0
 70
     0
 40
6.0
 41
0.9
 42
0.0
 43
0.7
 44
1.5
 73
     0
 74
     0
 77
     1
 78
     8
 79
     2
140
1.9
141
0.1
147
0.6
271
     2
272
     2
289
     2
340
F
  0
DIMSTYLE
105
F77
330
A
100
AcDbSymbolTableRecord
100
AcDbDimStyleTableRecord
  2
圆角
 70
     0
 41
2.5
 42
0.0
 43
8.0
 44
1.25
 73
     0
 77
     1
 78
     8
 79
     2
140
2.5
141
0.0
147
1.0
176
   256
177
   256
178
   256
179
     2
271
     2
272
     2
340
F
371
    -1
372
    -1
  0
DIMSTYLE
105
F78
330
A
100
AcDbSymbolTableRecord
100
AcDbDimStyleTableRecord
  2
ISO
 70
     0
 41
50.0
 42
0.0
 43
160.0
 44
25.0
 73
     0
 77
     1
 78
     8
 79
     2
140
50.0
141
0.0
147
18.0
176
   256
177
   256
178
   256
179
     2
271
     0
272
     0
340
F
371
    -1
372
    -1
  0
DIMSTYLE
105
12D2
330
A
100
AcDbSymbolTableRecord
100
AcDbDimStyleTableRecord
  2
ISO-25
 70
     0
 41
2.5
 42
0.625
 43
3.75
 44
1.25
 73
     0
 74
     0
 77
     1
 78
     8
140
15.0
141
2.5
143
0.03937007874016
147
3.0
171
     3
172
     1
271
     2
272
     2
274
     3
278
    44
283
     0
284
     8
340
F
  0
ENDTAB
  0
TABLE
  2
BLOCK_RECORD
  5
1
330
0
100
AcDbSymbolTable
 70
    15
  0
BLOCK_RECORD
  5
18
330
1
100
AcDbSymbolTableRecord
100
AcDbBlockTableRecord
  2
*MODEL_SPACE
340
17B
  0
BLOCK_RECORD
  5
15
330
1
100
AcDbSymbolTableRecord
100
AcDbBlockTableRecord
  2
*PAPER_SPACE
340
17C
  0
BLOCK_RECORD
  5
20
330
1
100
AcDbSymbolTableRecord
100
AcDbBlockTableRecord
  2
*D0
340
0
  0
BLOCK_RECORD
  5
2A
330
1
100
AcDbSymbolTableRecord
100
AcDbBlockTableRecord
  2
*D1
340
0
  0
BLOCK_RECORD
  5
34
330
1
100
AcDbSymbolTableRecord
100
AcDbBlockTableRecord
  2
*D2
340
0
  0
BLOCK_RECORD
  5
3C
330
1
100
AcDbSymbolTableRecord
100
AcDbBlockTableRecord
  2
*D3
340
0
  0
BLOCK_RECORD
  5
48
330
1
100
AcDbSymbolTableRecord
100
AcDbBlockTableRecord
  2
*D4
340
0
  0
BLOCK_RECORD
  5
54
330
1
100
AcDbSymbolTableRecord
100
AcDbBlockTableRecord
  2
*D5
340
0
  0
BLOCK_RECORD
  5
5C
330
1
100
AcDbSymbolTableRecord
100
AcDbBlockTableRecord
  2
*D6
340
0
  0
BLOCK_RECORD
  5
64
330
1
100
AcDbSymbolTableRecord
100
AcDbBlockTableRecord
  2
*D7
340
0
  0
BLOCK_RECORD
  5
6C
330
1
100
AcDbSymbolTableRecord
100
AcDbBlockTableRecord
  2
*D8
340
0
  0
BLOCK_RECORD
  5
74
330
1
100
AcDbSymbolTableRecord
100
AcDbBlockTableRecord
  2
*D9
340
0
  0
BLOCK_RECORD
  5
85
330
1
100
AcDbSymbolTableRecord
100
AcDbBlockTableRecord
  2
A$C656C1E65
340
0
  0
BLOCK_RECORD
  5
30FD
330
1
100
AcDbSymbolTableRecord
100
AcDbBlockTableRecord
  2
*D11
340
0
  0
BLOCK_RECORD
  5
310A
330
1
100
AcDbSymbolTableRecord
100
AcDbBlockTableRecord
  2
*D12
340
0
  0
BLOCK_RECORD
  5
313F
330
1
100
AcDbSymbolTableRecord
100
AcDbBlockTableRecord
  2
*D13
340
0
  0
BLOCK_RECORD
  5
31A7
330
1
100
AcDbSymbolTableRecord
100
AcDbBlockTableRecord
  2
A$C6A3D5EB3
340
0
  0
ENDTAB
  0
ENDSEC
  0
SECTION
  2
BLOCKS
  0
BLOCK
  5
19
330
18
100
AcDbEntity
  8
0
100
AcDbBlockBegin
  2
*MODEL_SPACE
 70
     0
 10
0.0
 20
0.0
 30
0.0
  3
*MODEL_SPACE
  1

  0
ENDBLK
  5
1A
330
18
100
AcDbEntity
  8
0
100
AcDbBlockEnd
  0
BLOCK
  5
16
330
15
100
AcDbEntity
 67
     1
  8
0
100
AcDbBlockBegin
  2
*PAPER_SPACE
 70
     0
 10
0.0
 20
0.0
 30
0.0
  3
*PAPER_SPACE
  1

  0
ENDBLK
  5
17
330
15
100
AcDbEntity
 67
     1
  8
0
100
AcDbBlockEnd
  0
BLOCK
  5
28
330
20
100
AcDbEntity
  8
0
100
AcDbBlockBegin
  2
*D0
 70
     1
 10
0.0
 20
0.0
 30
0.0
  3
*D0
  1

  0
LINE
  5
21
330
20
100
AcDbEntity
  8
0
  6
ByBlock
 62
     0
100
AcDbLine
 10
14341.544259
 20
-6766.314710999999
 30
0.0
 11
14255.088024
 21
-6768.621370999999
 31
0.0
  0
MTEXT
  5
22
330
20
100
AcDbEntity
  8
0
  6
ByBlock
 62
     0
100
AcDbMText
 10
14309.528684
 20
-6759.165042000001
 30
0.0
 40
11.43
 41
0.0
 71
     5
 72
     1
  1
\A1;R1201.7
 11
0.9996442654170836
 21
0.02667100708146
 31
0.0
 73
     1
 44
1.0
1001
ACAD
1000
MTEXTBEGIN
1070
    73
1070
     1
1070
    44
1040
1.0
1070
    74
1070
     0
1000
MTEXTEND
  0
SOLID
  5
23
330
20
100
AcDbEntity
  8
0
  6
ByBlock
 62
     0
100
AcDbTrace
 10
14266.463151
 20
-6766.412204000001
 30
0.0
 11
14266.564766
 21
-6770.220848000001
 31
0.0
 12
14255.088024
 22
-6768.621370999999
 32
0.0
 13
14255.088024
 23
-6768.621370999999
 33
0.0
  0
LINE
  5
24
330
20
100
AcDbEntity
  8
0
  6
ByBlock
 62
     0
100
AcDbLine
 10
13053.472597
 20
-6800.671423000001
 30
0.0
 11
13054.158397
 21
-6800.671423000001
 31
0.0
  0
LINE
  5
25
330
20
100
AcDbEntity
  8
0
  6
ByBlock
 62
     0
100
AcDbLine
 10
13053.815497
 20
-6801.014323000001
 30
0.0
 11
13053.815497
 21
-6800.328523000001
 31
0.0
  0
POINT
  5
26
330
20
100
AcDbEntity
  8
DEFPOINTS
  6
ByBlock
 62
     0
100
AcDbPoint
 10
14255.088024
 20
-6768.621370999999
 30
0.0
  0
POINT
  5
27
330
20
100
AcDbEntity
  8
DEFPOINTS
  6
ByBlock
 62
     0
100
AcDbPoint
 10
13053.815497
 20
-6800.671423000001
 30
0.0
  0
ENDBLK
  5
29
330
20
100
AcDbEntity
  8
0
100
AcDbBlockEnd
  0
BLOCK
  5
32
330
2A
100
AcDbEntity
  8
0
100
AcDbBlockBegin
  2
*D1
 70
     1
 10
0.0
 20
0.0
 30
0.0
  3
*D1
  1

  0
LINE
  5
2B
330
2A
100
AcDbEntity
  8
0
  6
ByBlock
 62
     0
100
AcDbLine
 10
13395.876672
 20
-6775.386468
 30
0.0
 11
13482.34701
 21
-6777.084063
 31
0.0
  0
MTEXT
  5
2C
330
2A
100
AcDbEntity
  8
0
  6
ByBlock
 62
     0
100
AcDbMText
 10
13427.841089
 20
-6768.011454999999
 30
0.0
 40
11.43
 41
0.0
 71
     5
 72
     1
  1
\A1;R1201.7
 11
0.9998073521157145
 21
-0.0196280069126614
 31
0.0
 73
     1
 44
1.0
1001
ACAD
1000
MTEXTBEGIN
1070
    73
1070
     1
1070
    44
1040
1.0
1070
    74
1070
     0
1000
MTEXTEND
  0
SOLID
  5
2D
330
2A
100
AcDbEntity
  8
0
  6
ByBlock
 62
     0
100
AcDbTrace
 10
13470.956604
 20
-6774.955078000001
 30
0.0
 11
13470.88182
 21
-6778.764343999999
 31
0.0
 12
13482.34701
 22
-6777.084063
 32
0.0
 13
13482.34701
 23
-6777.084063
 33
0.0
  0
LINE
  5
2E
330
2A
100
AcDbEntity
  8
0
  6
ByBlock
 62
     0
100
AcDbLine
 10
14683.472597
 20
-6800.671423000001
 30
0.0
 11
14684.158397
 21
-6800.671423000001
 31
0.0
  0
LINE
  5
2F
330
2A
100
AcDbEntity
  8
0
  6
ByBlock
 62
     0
100
AcDbLine
 10
14683.815497
 20
-6801.014323000001
 30
0.0
 11
14683.815497
 21
-6800.328523000001
 31
0.0
  0
POINT
  5
30
330
2A
100
AcDbEntity
  8
DEFPOINTS
  6
ByBlock
 62
     0
100
AcDbPoint
 10
13482.34701
 20
-6777.084063
 30
0.0
  0
POINT
  5
31
330
2A
100
AcDbEntity
  8
DEFPOINTS
  6
ByBlock
 62
     0
100
AcDbPoint
 10
14683.815497
 20
-6800.671423000001
 30
0.0
  0
ENDBLK
  5
33
330
2A
100
AcDbEntity
  8
0
100
AcDbBlockEnd
  0
BLOCK
  5
3A
330
34
100
AcDbEntity
  8
0
100
AcDbBlockBegin
  2
*D2
 70
     1
 10
0.0
 20
0.0
 30
0.0
  3
*D2
  1

  0
LINE
  5
35
330
34
100
AcDbEntity
  8
0
  6
ByBlock
 62
     0
100
AcDbLine
 10
13677.052022
 20
-8359.574506000001
 30
0.0
 11
13678.646219
 21
-8460.301734999999
 31
0.0
  0
MTEXT
  5
36
330
34
100
AcDbEntity
  8
0
  6
ByBlock
 62
     0
100
AcDbMText
 10
13685.585612
 20
-8393.162169
 30
0.0
 40
11.43
 41
0.0
 71
     5
 72
     1
  1
\A1;R1992.0
 11
0.0158249964690481
 21
-0.9998747769029654
 31
0.0
 73
     1
 44
1.0
1001
ACAD
1000
MTEXTBEGIN
1070
    73
1070
     1
1070
    44
1040
1.0
1070
    74
1070
     0
1000
MTEXTEND
  0
SOLID
  5
37
330
34
100
AcDbEntity
  8
0
  6
ByBlock
 62
     0
100
AcDbTrace
 10
13680.370102
 20
-8448.843020000001
 30
0.0
 11
13676.560579
 21
-8448.903312
 31
0.0
 12
13678.646219
 22
-8460.301734999999
 32
0.0
 13
13678.646219
 23
-8460.301734999999
 33
0.0
  0
POINT
  5
38
330
34
100
AcDbEntity
  8
DEFPOINTS
  6
ByBlock
 62
     0
100
AcDbPoint
 10
13678.646219
 20
-8460.301734999999
 30
-240.0
  0
POINT
  5
39
330
34
100
AcDbEntity
  8
DEFPOINTS
  6
ByBlock
 62
     0
100
AcDbPoint
 10
13647.123023
 20
-6468.551176
 30
-240.0
  0
ENDBLK
  5
3B
330
34
100
AcDbEntity
  8
0
100
AcDbBlockEnd
  0
BLOCK
  5
46
330
3C
100
AcDbEntity
  8
0
100
AcDbBlockBegin
  2
*D3
 70
     1
 10
0.0
 20
0.0
 30
0.0
  3
*D3
  1

  0
LINE
  5
3D
330
3C
100
AcDbEntity
  8
0
  6
ByBlock
 62
     0
100
AcDbLine
 10
13668.815497
 20
-7011.227542
 30
0.0
 11
13668.815497
 21
-7154.564311
 31
0.0
  0
LINE
  5
3E
330
3C
100
AcDbEntity
  8
0
  6
ByBlock
 62
     0
100
AcDbLine
 10
14067.315497
 20
-7011.227542
 30
0.0
 11
14067.315497
 21
-7154.564311
 31
0.0
  0
LINE
  5
3F
330
3C
100
AcDbEntity
  8
0
  6
ByBlock
 62
     0
100
AcDbLine
 10
13680.245497
 20
-7146.944311
 30
0.0
 11
14055.885497
 21
-7146.944311
 31
0.0
  0
SOLID
  5
40
330
3C
100
AcDbEntity
  8
0
  6
ByBlock
 62
     0
100
AcDbTrace
 10
13680.245497
 20
-7145.039310999999
 30
0.0
 11
13680.245497
 21
-7148.849311000001
 31
0.0
 12
13668.815497
 22
-7146.944311
 32
0.0
 13
13668.815497
 23
-7146.944311
 33
0.0
  0
SOLID
  5
41
330
3C
100
AcDbEntity
  8
0
  6
ByBlock
 62
     0
100
AcDbTrace
 10
14055.885497
 20
-7145.039310999999
 30
0.0
 11
14055.885497
 21
-7148.849311000001
 31
0.0
 12
14067.315497
 22
-7146.944311
 32
0.0
 13
14067.315497
 23
-7146.944311
 33
0.0
  0
MTEXT
  5
42
330
3C
100
AcDbEntity
  8
0
  6
ByBlock
 62
     0
100
AcDbMText
 10
13868.065497
 20
-7138.943311
 30
0.0
 40
11.43
 41
0.0
 71
     5
 72
     1
  1
\A1;398.5
 73
     1
 44
1.0
1001
ACAD
1000
MTEXTBEGIN
1070
    73
1070
     1
1070
    44
1040
1.0
1070
    74
1070
     0
1000
MTEXTEND
  0
POINT
  5
43
330
3C
100
AcDbEntity
  8
DEFPOINTS
  6
ByBlock
 62
     0
100
AcDbPoint
 10
13668.815497
 20
-7008.846292
 30
0.0
  0
POINT
  5
44
330
3C
100
AcDbEntity
  8
DEFPOINTS
  6
ByBlock
 62
     0
100
AcDbPoint
 10
14067.315497
 20
-7008.846292
 30
0.0
  0
POINT
  5
45
330
3C
100
AcDbEntity
  8
DEFPOINTS
  6
ByBlock
 62
     0
100
AcDbPoint
 10
14067.315497
 20
-7146.944311
 30
0.0
  0
ENDBLK
  5
47
330
3C
100
AcDbEntity
  8
0
100
AcDbBlockEnd
  0
BLOCK
  5
52
330
48
100
AcDbEntity
  8
0
100
AcDbBlockBegin
  2
*D4
 70
     1
 10
0.0
 20
0.0
 30
0.0
  3
*D4
  1

  0
LINE
  5
49
330
48
100
AcDbEntity
  8
0
  6
ByBlock
 62
     0
100
AcDbLine
 10
14013.139376
 20
-7008.846292
 30
0.0
 11
14397.146276
 21
-7008.846292
 31
0.0
  0
LINE
  5
4A
330
48
100
AcDbEntity
  8
0
  6
ByBlock
 62
     0
100
AcDbLine
 10
14013.139376
 20
-6598.846292000001
 30
0.0
 11
14397.146276
 21
-6598.846292000001
 31
0.0
  0
LINE
  5
4B
330
48
100
AcDbEntity
  8
0
  6
ByBlock
 62
     0
100
AcDbLine
 10
14389.526276
 20
-6997.416292
 30
0.0
 11
14389.526276
 21
-6610.276292
 31
0.0
  0
SOLID
  5
4C
330
48
100
AcDbEntity
  8
0
  6
ByBlock
 62
     0
100
AcDbTrace
 10
14387.621276
 20
-6997.416292
 30
0.0
 11
14391.431276
 21
-6997.416292
 31
0.0
 12
14389.526276
 22
-7008.846292
 32
0.0
 13
14389.526276
 23
-7008.846292
 33
0.0
  0
SOLID
  5
4D
330
48
100
AcDbEntity
  8
0
  6
ByBlock
 62
     0
100
AcDbTrace
 10
14387.621276
 20
-6610.276292
 30
0.0
 11
14391.431276
 21
-6610.276292
 31
0.0
 12
14389.526276
 22
-6598.846292000001
 32
0.0
 13
14389.526276
 23
-6598.846292000001
 33
0.0
  0
MTEXT
  5
4E
330
48
100
AcDbEntity
  8
0
  6
ByBlock
 62
     0
100
AcDbMText
 10
14381.525276
 20
-6803.846292
 30
0.0
 40
11.43
 41
0.0
 71
     5
 72
     1
  1
\A1;410.0
 11
0.0
 21
1.0
 31
0.0
 73
     1
 44
1.0
1001
ACAD
1000
MTEXTBEGIN
1070
    73
1070
     1
1070
    44
1040
1.0
1070
    74
1070
     0
1000
MTEXTEND
  0
POINT
  5
4F
330
48
100
AcDbEntity
  8
DEFPOINTS
  6
ByBlock
 62
     0
100
AcDbPoint
 10
14010.758126
 20
-7008.846292
 30
0.0
  0
POINT
  5
50
330
48
100
AcDbEntity
  8
DEFPOINTS
  6
ByBlock
 62
     0
100
AcDbPoint
 10
14010.758126
 20
-6598.846292000001
 30
0.0
  0
POINT
  5
51
330
48
100
AcDbEntity
  8
DEFPOINTS
  6
ByBlock
 62
     0
100
AcDbPoint
 10
14389.526276
 20
-6598.846292000001
 30
0.0
  0
ENDBLK
  5
53
330
48
100
AcDbEntity
  8
0
100
AcDbBlockEnd
  0
BLOCK
  5
5A
330
54
100
AcDbEntity
  8
0
100
AcDbBlockBegin
  2
*D5
 70
     1
 10
0.0
 20
0.0
 30
0.0
  3
*D5
  1

  0
LINE
  5
55
330
54
100
AcDbEntity
  8
0
  6
ByBlock
 62
     0
100
AcDbLine
 10
13568.490578
 20
-6688.648233000001
 30
0.0
 11
13508.594126
 21
-6643.415852
 31
0.0
  0
MTEXT
  5
56
330
54
100
AcDbEntity
  8
0
  6
ByBlock
 62
     0
100
AcDbMText
 10
13552.485365
 20
-6666.535321000001
 30
0.0
 40
11.43
 41
0.0
 71
     5
 72
     1
  1
\A1;R100.0
 11
0.7980131126120274
 21
-0.602640085041863
 31
0.0
 73
     1
 44
1.0
1001
ACAD
1000
MTEXTBEGIN
1070
    73
1070
     1
1070
    44
1040
1.0
1070
    74
1070
     0
1000
MTEXTEND
  0
SOLID
  5
57
330
54
100
AcDbEntity
  8
0
  6
ByBlock
 62
     0
100
AcDbTrace
 10
13518.863443
 20
-6648.783817
 30
0.0
 11
13516.567383
 21
-6651.824246
 31
0.0
 12
13508.594126
 22
-6643.415852
 32
0.0
 13
13508.594126
 23
-6643.415852
 33
0.0
  0
POINT
  5
58
330
54
100
AcDbEntity
  8
DEFPOINTS
  6
ByBlock
 62
     0
100
AcDbPoint
 10
13508.594126
 20
-6643.415852
 30
0.0
  0
POINT
  5
59
330
54
100
AcDbEntity
  8
DEFPOINTS
  6
ByBlock
 62
     0
100
AcDbPoint
 10
13588.395413
 20
-6703.679893
 30
0.0
  0
ENDBLK
  5
5B
330
54
100
AcDbEntity
  8
0
100
AcDbBlockEnd
  0
BLOCK
  5
62
330
5C
100
AcDbEntity
  8
0
100
AcDbBlockBegin
  2
*D6
 70
     1
 10
0.0
 20
0.0
 30
0.0
  3
*D6
  1

  0
LINE
  5
5D
330
5C
100
AcDbEntity
  8
0
  6
ByBlock
 62
     0
100
AcDbLine
 10
13567.56031
 20
-6916.906498
 30
0.0
 11
13503.100062
 21
-6955.356852
 31
0.0
  0
MTEXT
  5
5E
330
5C
100
AcDbEntity
  8
0
  6
ByBlock
 62
     0
100
AcDbMText
 10
13541.047699
 20
-6923.404893999999
 30
0.0
 40
11.43
 41
0.0
 71
     5
 72
     1
  1
\A1;R100.0
 11
0.8588172202810628
 21
0.5122821313970537
 31
0.0
 73
     1
 44
1.0
1001
ACAD
1000
MTEXTBEGIN
1070
    73
1070
     1
1070
    44
1040
1.0
1070
    74
1070
     0
1000
MTEXTEND
  0
SOLID
  5
5F
330
5C
100
AcDbEntity
  8
0
  6
ByBlock
 62
     0
100
AcDbTrace
 10
13511.940446
 20
-6947.865421
 30
0.0
 11
13513.892241
 21
-6951.137515
 31
0.0
 12
13503.100062
 22
-6955.356852
 32
0.0
 13
13503.100062
 23
-6955.356852
 33
0.0
  0
POINT
  5
60
330
5C
100
AcDbEntity
  8
DEFPOINTS
  6
ByBlock
 62
     0
100
AcDbPoint
 10
13503.100062
 20
-6955.356852
 30
0.0
  0
POINT
  5
61
330
5C
100
AcDbEntity
  8
DEFPOINTS
  6
ByBlock
 62
     0
100
AcDbPoint
 10
13588.981789
 20
-6904.128647
 30
0.0
  0
ENDBLK
  5
63
330
5C
100
AcDbEntity
  8
0
100
AcDbBlockEnd
  0
BLOCK
  5
6A
330
64
100
AcDbEntity
  8
0
100
AcDbBlockBegin
  2
*D7
 70
     1
 10
0.0
 20
0.0
 30
0.0
  3
*D7
  1

  0
LINE
  5
65
330
64
100
AcDbEntity
  8
0
  6
ByBlock
 62
     0
100
AcDbLine
 10
14155.379353
 20
-6910.746087000001
 30
0.0
 11
14221.683408
 21
-6972.025601
 31
0.0
  0
MTEXT
  5
66
330
64
100
AcDbEntity
  8
0
  6
ByBlock
 62
     0
100
AcDbMText
 10
14179.976244
 20
-6922.584188
 30
0.0
 40
11.43
 41
0.0
 71
     5
 72
     1
  1
\A1;R100.0
 11
0.7343850684762704
 21
-0.6787330632871101
 31
0.0
 73
     1
 44
1.0
1001
ACAD
1000
MTEXTBEGIN
1070
    73
1070
     1
1070
    44
1040
1.0
1070
    74
1070
     0
1000
MTEXTEND
  0
SOLID
  5
67
330
64
100
AcDbEntity
  8
0
  6
ByBlock
 62
     0
100
AcDbTrace
 10
14214.582374
 20
-6962.868677999999
 30
0.0
 11
14211.996401
 21
-6965.666684999999
 31
0.0
 12
14221.683408
 22
-6972.025601
 32
0.0
 13
14221.683408
 23
-6972.025601
 33
0.0
  0
POINT
  5
68
330
64
100
AcDbEntity
  8
DEFPOINTS
  6
ByBlock
 62
     0
100
AcDbPoint
 10
14221.683408
 20
-6972.025601
 30
0.0
  0
POINT
  5
69
330
64
100
AcDbEntity
  8
DEFPOINTS
  6
ByBlock
 62
     0
100
AcDbPoint
 10
14148.244905
 20
-6904.15229
 30
0.0
  0
ENDBLK
  5
6B
330
64
100
AcDbEntity
  8
0
100
AcDbBlockEnd
  0
BLOCK
  5
72
330
6C
100
AcDbEntity
  8
0
100
AcDbBlockBegin
  2
*D8
 70
     1
 10
0.0
 20
0.0
 30
0.0
  3
*D8
  1

  0
LINE
  5
6D
330
6C
100
AcDbEntity
  8
0
  6
ByBlock
 62
     0
100
AcDbLine
 10
14147.071113
 20
-6705.400953999999
 30
0.0
 11
14218.907586
 21
-6632.269191999999
 31
0.0
  0
MTEXT
  5
6E
330
6C
100
AcDbEntity
  8
0
  6
ByBlock
 62
     0
100
AcDbMText
 10
14159.652036
 20
-6681.175593999999
 30
0.0
 40
11.43
 41
0.0
 71
     5
 72
     1
  1
\A1;R100.0
 11
0.7007610588860054
 21
0.7133960599477436
 31
0.0
 73
     1
 44
1.0
1001
ACAD
1000
MTEXTBEGIN
1070
    73
1070
     1
1070
    44
1040
1.0
1070
    74
1070
     0
1000
MTEXTEND
  0
SOLID
  5
6F
330
6C
100
AcDbEntity
  8
0
  6
ByBlock
 62
     0
100
AcDbTrace
 10
14209.53887
 20
-6639.088361999999
 30
0.0
 11
14212.25691
 21
-6641.758260999999
 31
0.0
 12
14218.907586
 22
-6632.269191999999
 32
0.0
 13
14218.907586
 23
-6632.269191999999
 33
0.0
  0
POINT
  5
70
330
6C
100
AcDbEntity
  8
DEFPOINTS
  6
ByBlock
 62
     0
100
AcDbPoint
 10
14218.907586
 20
-6632.269191999999
 30
0.0
  0
POINT
  5
71
330
6C
100
AcDbEntity
  8
DEFPOINTS
  6
ByBlock
 62
     0
100
AcDbPoint
 10
14148.831504
 20
-6703.608821
 30
0.0
  0
ENDBLK
  5
73
330
6C
100
AcDbEntity
  8
0
100
AcDbBlockEnd
  0
BLOCK
  5
7E
330
74
100
AcDbEntity
  8
0
100
AcDbBlockBegin
  2
*D9
 70
     1
 10
0.0
 20
0.0
 30
0.0
  3
*D9
  1

  0
LINE
  5
75
330
74
100
AcDbEntity
  8
0
  6
ByBlock
 62
     0
100
AcDbLine
 10
13484.120708
 20
-6806.591445000001
 30
0.0
 11
13484.120708
 21
-7187.83882
 31
0.0
  0
LINE
  5
76
330
74
100
AcDbEntity
  8
0
  6
ByBlock
 62
     0
100
AcDbLine
 10
14253.110425
 20
-6806.567684
 30
0.0
 11
14253.110425
 21
-7187.83882
 31
0.0
  0
LINE
  5
77
330
74
100
AcDbEntity
  8
0
  6
ByBlock
 62
     0
100
AcDbLine
 10
13495.550708
 20
-7180.21882
 30
0.0
 11
14241.680425
 21
-7180.21882
 31
0.0
  0
SOLID
  5
78
330
74
100
AcDbEntity
  8
0
  6
ByBlock
 62
     0
100
AcDbTrace
 10
13495.550708
 20
-7178.313820000001
 30
0.0
 11
13495.550708
 21
-7182.123820000001
 31
0.0
 12
13484.120708
 22
-7180.21882
 32
0.0
 13
13484.120708
 23
-7180.21882
 33
0.0
  0
SOLID
  5
79
330
74
100
AcDbEntity
  8
0
  6
ByBlock
 62
     0
100
AcDbTrace
 10
14241.680425
 20
-7178.313820000001
 30
0.0
 11
14241.680425
 21
-7182.123820000001
 31
0.0
 12
14253.110425
 22
-7180.21882
 32
0.0
 13
14253.110425
 23
-7180.21882
 33
0.0
  0
MTEXT
  5
7A
330
74
100
AcDbEntity
  8
0
  6
ByBlock
 62
     0
100
AcDbMText
 10
13868.615566
 20
-7172.21782
 30
0.0
 40
11.43
 41
0.0
 71
     5
 72
     1
  1
\A1;769.0
 73
     1
 44
1.0
1001
ACAD
1000
MTEXTBEGIN
1070
    73
1070
     1
1070
    44
1040
1.0
1070
    74
1070
     0
1000
MTEXTEND
  0
POINT
  5
7B
330
74
100
AcDbEntity
  8
DEFPOINTS
  6
ByBlock
 62
     0
100
AcDbPoint
 10
13484.120708
 20
-6804.210195
 30
0.0
  0
POINT
  5
7C
330
74
100
AcDbEntity
  8
DEFPOINTS
  6
ByBlock
 62
     0
100
AcDbPoint
 10
14253.110425
 20
-6804.186434
 30
0.0
  0
POINT
  5
7D
330
74
100
AcDbEntity
  8
DEFPOINTS
  6
ByBlock
 62
     0
100
AcDbPoint
 10
14253.110425
 20
-7180.21882
 30
0.0
  0
ENDBLK
  5
7F
330
74
100
AcDbEntity
  8
0
100
AcDbBlockEnd
  0
BLOCK
  5
9F
330
85
100
AcDbEntity
  8
0
100
AcDbBlockBegin
  2
A$C656C1E65
 70
     0
 10
0.0
 20
0.0
 30
0.0
  3
A$C656C1E65
  1

  0
DIMENSION
  5
86
330
85
100
AcDbEntity
  8
DIM
100
AcDbDimension
  2
*D2
 10
595.150415
 20
1991.750582
 30
-240.0
 11
625.6130049999999
 21
67.01297499999999
 31
0.0
 12
-13051.972608
 22
8460.301757999999
 32
0.0
 70
   132
 71
     5
 42
-1.0
  3
B
100
AcDbRadialDimension
 15
626.673611
 25
0.000023
 35
-240.0
 40
0.0
1001
ACAD
1000
DSTYLE
1002
{
1070
   288
1070
     1
1070
   287
1070
     3
1002
}
  0
DIMENSION
  5
87
330
85
100
AcDbEntity
  8
DIM
100
AcDbDimension
  2
*D9
 10
1201.137817
 20
1280.082938
 30
0.0
 11
816.642958
 21
1288.083938
 31
0.0
 12
-13051.972608
 22
8460.301757999999
 32
0.0
 71
     5
 42
-1.0
  3
B
100
AcDbAlignedDimension
 13
432.148099
 23
1656.091563
 33
0.0
 14
1201.137817
 24
1656.115324
 34
0.0
100
AcDbRotatedDimension
1001
ACAD
1000
DSTYLE
1002
{
1070
   287
1070
     3
1002
}
  0
DIMENSION
  5
88
330
85
100
AcDbEntity
  8
DIM
100
AcDbDimension
  2
*D8
 10
1096.858896
 20
1756.692937
 30
0.0
 11
1113.387311
 21
1773.519377
 31
0.0
 12
-13051.972608
 22
8460.301757999999
 32
0.0
 70
   132
 71
     5
 42
-1.0
  3
B
100
AcDbRadialDimension
 15
1166.934978
 25
1828.032566
 35
0.0
 40
0.0
1001
ACAD
1000
DSTYLE
1002
{
1070
   288
1070
     1
1070
   287
1070
     3
1002
}
  0
DIMENSION
  5
89
330
85
100
AcDbEntity
  8
DIM
100
AcDbDimension
  2
*D4
 10
1337.553668
 20
1861.455466
 30
0.0
 11
1329.552668
 21
1656.455466
 31
0.0
 12
-13051.972608
 22
8460.301757999999
 32
0.0
 71
     5
 42
-1.0
  3
B
100
AcDbAlignedDimension
 13
958.785517
 23
1451.455466
 33
0.0
 14
958.785517
 24
1861.455466
 34
0.0
 50
90.0
100
AcDbRotatedDimension
1001
ACAD
1000
DSTYLE
1002
{
1070
   287
1070
     3
1002
}
  0
LINE
  5
8A
330
85
100
AcDbEntity
  8
CENTER
100
AcDbLine
 10
1279.165219
 20
1656.091563
 30
0.0
 11
383.128884
 21
1656.091563
 31
0.0
  0
DIMENSION
  5
8B
330
85
100
AcDbEntity
  8
DIM
100
AcDbDimension
  2
*D1
 10
1633.342957
 20
1659.606933
 30
0.0
 11
377.211503
 21
1684.267442
 31
0.0
 12
-13050.47254
 22
8460.278356000001
 32
0.0
 70
   132
 71
     5
 42
-1.0
  3
B
100
AcDbRadialDimension
 15
431.87447
 25
1683.194293
 35
0.0
 40
0.0
1001
ACAD
1000
DSTYLE
1002
{
1070
   288
1070
     1
1070
   287
1070
     3
1002
}
  0
ARC
  5
8C
330
85
100
AcDbEntity
  8
0
100
AcDbCircle
 10
1015.342889
 20
2251.455466
 30
0.0
 40
800.0
100
AcDbArc
 50
270.0
 51
276.639009
  0
DIMENSION
  5
8D
330
85
100
AcDbEntity
  8
DIM
100
AcDbDimension
  2
*D0
 10
0.342889
 20
1659.630335
 30
0.0
 11
1256.269467
 21
1693.138562
 31
0.0
 12
-13053.472608
 22
8460.301757999999
 32
0.0
 70
   132
 71
     5
 42
-1.0
  3
B
100
AcDbRadialDimension
 15
1201.615416
 25
1691.680387
 35
0.0
 40
0.0
1001
ACAD
1000
DSTYLE
1002
{
1070
   288
1070
     1
1070
   287
1070
     3
1002
}
  0
ARC
  5
8E
330
85
100
AcDbEntity
  8
0
100
AcDbCircle
 10
1015.342889
 20
1061.455466
 30
0.0
 40
800.0
100
AcDbArc
 50
83.31265100000001
 51
90.0
  0
DIMENSION
  5
8F
330
85
100
AcDbEntity
  8
DIM
100
AcDbDimension
  2
*D6
 10
537.0091799999999
 20
1556.173112
 30
0.0
 11
493.173859
 21
1530.025467
 31
0.0
 12
-13051.972608
 22
8460.301757999999
 32
0.0
 70
   132
 71
     5
 42
-1.0
  3
B
100
AcDbRadialDimension
 15
451.127454
 25
1504.944906
 35
0.0
 40
0.0
1001
ACAD
1000
DSTYLE
1002
{
1070
   288
1070
     1
1070
   287
1070
     3
1002
}
  0
DIMENSION
  5
90
330
85
100
AcDbEntity
  8
DIM
100
AcDbDimension
  2
*D5
 10
536.422804
 20
1756.621866
 30
0.0
 11
495.6910299999999
 21
1787.381536
 31
0.0
 12
-13051.972608
 22
8460.301757999999
 32
0.0
 70
   132
 71
     5
 42
-1.0
  3
B
100
AcDbRadialDimension
 15
456.6215169999999
 25
1816.885906
 35
0.0
 40
0.0
1001
ACAD
1000
DSTYLE
1002
{
1070
   288
1070
     1
1070
   287
1070
     3
1002
}
  0
ARC
  5
91
330
85
100
AcDbEntity
  8
0
100
AcDbCircle
 10
537.0091799999999
 20
1556.173112
 30
0.0
 40
100.0
100
AcDbArc
 50
185.387186
 51
263.3119120000001
  0
ARC
  5
92
330
85
100
AcDbEntity
  8
0
100
AcDbCircle
 10
536.422804
 20
1756.621866
 30
0.0
 40
100.0
100
AcDbArc
 50
96.70306
 51
174.94803
  0
ARC
  5
93
330
85
100
AcDbEntity
  8
0
100
AcDbCircle
 10
1633.842957
 20
1659.606933
 30
0.0
 40
1201.7
100
AcDbArc
 50
174.94803
 51
185.387186
  0
LINE
  5
94
330
85
100
AcDbEntity
  8
CENTER
100
AcDbLine
 10
816.8428889999999
 20
1938.975354
 30
0.0
 11
816.8428889999999
 21
1347.654955
 31
0.0
  0
DIMENSION
  5
95
330
85
100
AcDbEntity
  8
DIM
100
AcDbDimension
  2
*D3
 10
1015.342889
 20
1313.357448
 30
0.0
 11
816.092889
 21
1321.358448
 31
0.0
 12
-13051.972608
 22
8460.301757999999
 32
0.0
 71
     5
 42
-1.0
  3
B
100
AcDbAlignedDimension
 13
616.842889
 23
1451.455466
 33
0.0
 14
1015.342889
 24
1451.455466
 34
0.0
100
AcDbRotatedDimension
1001
ACAD
1000
DSTYLE
1002
{
1070
   287
1070
     3
1002
}
  0
LINE
  5
96
330
85
100
AcDbEntity
  8
0
100
AcDbLine
 10
616.842889
 20
1451.455466
 30
0.0
 11
1015.342889
 21
1451.455466
 31
0.0
  0
ARC
  5
97
330
85
100
AcDbEntity
  8
0
100
AcDbCircle
 10
617.7570209999999
 20
2244.782231
 30
0.0
 40
793.327291
100
AcDbArc
 50
263.3119120000001
 51
269.933979
  0
MTEXT
  5
98
330
85
100
AcDbEntity
  8
DIM
 62
     4
100
AcDbMText
 10
885.0721289999999
 20
1611.242917
 30
0.0
 40
50.0
 41
156.6151
 71
     1
 72
     5
  1
\f华文新魏|b0|i0|c134|p2;\C3;502
 73
     1
 44
1.0
1001
ACAD
1000
MTEXTBEGIN
1070
    73
1070
     1
1070
    44
1040
1.0
1070
    74
1070
     0
1000
MTEXTEND
  0
LINE
  5
99
330
85
100
AcDbEntity
  8
0
100
AcDbLine
 10
1015.342889
 20
1861.455466
 30
0.0
 11
616.842889
 21
1861.455466
 31
0.0
  0
ARC
  5
9A
330
85
100
AcDbEntity
  8
0
100
AcDbCircle
 10
619.0106
 20
1053.909345
 30
0.0
 40
807.5490310000001
100
AcDbArc
 50
90.1538
 51
96.70306
  0
ARC
  5
9B
330
85
100
AcDbEntity
  8
0
100
AcDbCircle
 10
-0.5570430000000001
 20
1659.630335
 30
0.0
 40
1201.7
100
AcDbArc
 50
354.610357
 51
5.054458999999999
  0
DIMENSION
  5
9C
330
85
100
AcDbEntity
  8
DIM
100
AcDbDimension
  2
*D7
 10
1096.272297
 20
1556.149468
 30
0.0
 11
1122.573092
 21
1531.841755
 31
0.0
 12
-13051.972608
 22
8460.301757999999
 32
0.0
 70
   132
 71
     5
 42
-1.0
  3
B
100
AcDbRadialDimension
 15
1169.7108
 25
1488.276157
 35
0.0
 40
0.0
1001
ACAD
1000
DSTYLE
1002
{
1070
   288
1070
     1
1070
   287
1070
     3
1002
}
  0
ARC
  5
9D
330
85
100
AcDbEntity
  8
0
100
AcDbCircle
 10
1096.272297
 20
1556.149468
 30
0.0
 40
100.0
100
AcDbArc
 50
276.639009
 51
354.610357
  0
ARC
  5
9E
330
85
100
AcDbEntity
  8
0
100
AcDbCircle
 10
1096.858896
 20
1756.692937
 30
0.0
 40
100.0
100
AcDbArc
 50
5.054458999999999
 51
83.31265100000001
  0
ENDBLK
  5
A0
330
85
100
AcDbEntity
  8
0
100
AcDbBlockEnd
  0
BLOCK
  5
3108
330
30FD
100
AcDbEntity
  8
0
100
AcDbBlockBegin
  2
*D11
 70
     1
 10
0.0
 20
0.0
 30
0.0
  3
*D11
  1

  0
LINE
  5
3188
330
30FD
100
AcDbEntity
  8
0
 62
     0
370
    -2
100
AcDbLine
 10
3782.225646002568
 20
3818.330415940664
 30
0.0
 11
3782.225646002568
 21
3818.955415940664
 31
0.0
  0
LINE
  5
3189
330
30FD
100
AcDbEntity
  8
0
 62
     0
370
    -2
100
AcDbLine
 10
4314.225646002568
 20
3818.330415940664
 30
0.0
 11
4314.225646002568
 21
3818.955415940664
 31
0.0
  0
LINE
  5
318A
330
30FD
100
AcDbEntity
  8
0
 62
     0
370
    -2
100
AcDbLine
 10
3792.225646002567
 20
3817.705415940664
 30
0.0
 11
4304.225646002567
 21
3817.705415940664
 31
0.0
  0
SOLID
  5
318B
330
30FD
100
AcDbEntity
  8
0
 62
     0
100
AcDbTrace
 10
3792.225646002567
 20
3819.37208260733
 30
0.0
 11
3792.225646002567
 21
3816.038749273997
 31
0.0
 12
3782.225646002568
 22
3817.705415940664
 32
0.0
 13
3782.225646002568
 23
3817.705415940664
 33
0.0
  0
SOLID
  5
318C
330
30FD
100
AcDbEntity
  8
0
 62
     0
100
AcDbTrace
 10
4304.225646002567
 20
3819.37208260733
 30
0.0
 11
4304.225646002567
 21
3816.038749273997
 31
0.0
 12
4314.225646002568
 22
3817.705415940664
 32
0.0
 13
4314.225646002568
 23
3817.705415940664
 33
0.0
  0
MTEXT
  5
318D
330
30FD
100
AcDbEntity
  8
0
 62
     0
100
AcDbMText
 10
4048.225646002567
 20
3830.705415940664
 30
0.0
 40
20.0
 41
0.0
 71
     5
 72
     1
  1
532
 73
     1
 44
1.0
1001
ACAD
1000
MTEXTBEGIN
1070
    73
1070
     1
1070
    44
1040
1.0
1070
    74
1070
     0
1000
MTEXTEND
  0
POINT
  5
318E
330
30FD
100
AcDbEntity
  8
DEFPOINTS
 62
     0
100
AcDbPoint
 10
3782.225646002568
 20
3817.705415940664
 30
0.0
  0
POINT
  5
318F
330
30FD
100
AcDbEntity
  8
DEFPOINTS
 62
     0
100
AcDbPoint
 10
4314.225646002568
 20
3817.705415940664
 30
0.0
  0
POINT
  5
3190
330
30FD
100
AcDbEntity
  8
DEFPOINTS
 62
     0
100
AcDbPoint
 10
4314.225646002568
 20
3817.705415940664
 30
0.0
  0
ENDBLK
  5
3109
330
30FD
100
AcDbEntity
  8
0
100
AcDbBlockEnd
  0
BLOCK
  5
3115
330
310A
100
AcDbEntity
  8
0
100
AcDbBlockBegin
  2
*D12
 70
     1
 10
0.0
 20
0.0
 30
0.0
  3
*D12
  1

  0
LINE
  5
317F
330
310A
100
AcDbEntity
  8
0
 62
     0
370
    -2
100
AcDbLine
 10
3711.668381680686
 20
4291.854018504382
 30
0.0
 11
3711.043381680685
 21
4291.854018504382
 31
0.0
  0
LINE
  5
3180
330
310A
100
AcDbEntity
  8
0
 62
     0
370
    -2
100
AcDbLine
 10
3711.668381680686
 20
3885.854018504382
 30
0.0
 11
3711.043381680685
 21
3885.854018504382
 31
0.0
  0
LINE
  5
3181
330
310A
100
AcDbEntity
  8
0
 62
     0
370
    -2
100
AcDbLine
 10
3712.293381680686
 20
4281.854018504382
 30
0.0
 11
3712.293381680686
 21
3895.854018504382
 31
0.0
  0
SOLID
  5
3182
330
310A
100
AcDbEntity
  8
0
 62
     0
100
AcDbTrace
 10
3710.626715014019
 20
4281.854018504382
 30
0.0
 11
3713.960048347352
 21
4281.854018504382
 31
0.0
 12
3712.293381680686
 22
4291.854018504382
 32
0.0
 13
3712.293381680686
 23
4291.854018504382
 33
0.0
  0
SOLID
  5
3183
330
310A
100
AcDbEntity
  8
0
 62
     0
100
AcDbTrace
 10
3710.626715014019
 20
3895.854018504382
 30
0.0
 11
3713.960048347352
 21
3895.854018504382
 31
0.0
 12
3712.293381680686
 22
3885.854018504382
 32
0.0
 13
3712.293381680686
 23
3885.854018504382
 33
0.0
  0
MTEXT
  5
3184
330
310A
100
AcDbEntity
  8
0
 62
     0
100
AcDbMText
 10
3699.293381680685
 20
4088.854018504383
 30
0.0
 40
20.0
 41
0.0
 71
     5
 72
     1
  1
406
 11
0.0000000000000001
 21
1.0
 31
0.0
 73
     1
 44
1.0
1001
ACAD
1000
MTEXTBEGIN
1070
    73
1070
     1
1070
    44
1040
1.0
1070
    74
1070
     0
1000
MTEXTEND
  0
POINT
  5
3185
330
310A
100
AcDbEntity
  8
DEFPOINTS
 62
     0
100
AcDbPoint
 10
3712.293381680686
 20
4291.854018504382
 30
0.0
  0
POINT
  5
3186
330
310A
100
AcDbEntity
  8
DEFPOINTS
 62
     0
100
AcDbPoint
 10
3712.293381680686
 20
3885.854018504382
 30
0.0
  0
POINT
  5
3187
330
310A
100
AcDbEntity
  8
DEFPOINTS
 62
     0
100
AcDbPoint
 10
3712.293381680686
 20
3885.854018504382
 30
0.0
  0
ENDBLK
  5
3116
330
310A
100
AcDbEntity
  8
0
100
AcDbBlockEnd
  0
BLOCK
  5
3146
330
313F
100
AcDbEntity
  8
0
100
AcDbBlockBegin
  2
*D13
 70
     1
 10
0.0
 20
0.0
 30
0.0
  3
*D13
  1

  0
LINE
  5
3179
330
313F
100
AcDbEntity
  8
0
 62
     0
370
    -2
100
AcDbLine
 10
4363.821333554591
 20
4336.123248245668
 30
0.0
 11
4317.64646944896
 21
4293.755890103609
 31
0.0
  0
MTEXT
  5
317A
330
313F
100
AcDbEntity
  8
0
 62
     0
100
AcDbMText
 10
4335.629092959457
 20
4327.89877168661
 30
0.0
 40
20.0
 41
0.0
 71
     5
 72
     1
  1
R15
 11
0.7368329378558309
 21
0.6760748639690322
 31
0.0
 73
     1
 44
1.0
1001
ACAD
1000
MTEXTBEGIN
1070
    73
1070
     1
1070
    44
1040
1.0
1070
    74
1070
     0
1000
MTEXTEND
  0
LINE
  5
317B
330
313F
100
AcDbEntity
  8
0
 62
     0
370
    -2
100
AcDbLine
 10
4299.225646002566
 20
4276.854018504384
 30
0.0
 11
4310.278140070401
 21
4286.995141463918
 31
0.0
  0
SOLID
  5
317C
330
313F
100
AcDbEntity
  8
0
 62
     0
100
AcDbTrace
 10
4316.519678009012
 20
4294.983945000035
 30
0.0
 11
4318.773260888909
 21
4292.527835207183
 31
0.0
 12
4310.278140070401
 22
4286.995141463918
 32
0.0
 13
4310.278140070401
 23
4286.995141463918
 33
0.0
  0
POINT
  5
317D
330
313F
100
AcDbEntity
  8
DEFPOINTS
 62
     0
100
AcDbPoint
 10
4310.278140070401
 20
4286.995141463918
 30
0.0
  0
POINT
  5
317E
330
313F
100
AcDbEntity
  8
DEFPOINTS
 62
     0
100
AcDbPoint
 10
4299.225646002566
 20
4276.854018504384
 30
0.0
  0
ENDBLK
  5
3147
330
313F
100
AcDbEntity
  8
0
100
AcDbBlockEnd
  0
BLOCK
  5
31CB
330
31A7
100
AcDbEntity
  8
0
100
AcDbBlockBegin
  2
A$C6A3D5EB3
 70
     0
 10
0.0
 20
0.0
 30
0.0
  3
A$C6A3D5EB3
  1

  0
LINE
  5
31A8
330
31A7
100
AcDbEntity
  8
标注
100
AcDbLine
 10
1895.256896879163
 20
1446.075289040968
 30
0.0
 11
1932.207314107299
 21
1446.075289040968
 31
0.0
  0
LINE
  5
31A9
330
31A7
100
AcDbEntity
  8
标注
100
AcDbLine
 10
1895.256896879163
 20
1446.075289040968
 30
0.0
 11
1913.732105493231
 21
1414.075289040968
 31
0.0
  0
LINE
  5
31AA
330
31A7
100
AcDbEntity
  8
标注
100
AcDbLine
 10
1913.732105493231
 20
1414.075289040968
 30
0.0
 11
1955.301324874884
 21
1486.075289040967
 31
0.0
  0
TEXT
  5
31AB
330
31A7
100
AcDbEntity
  8
标注
100
AcDbText
 10
1873.543543714277
 20
1452.518370693728
 30
0.0
 40
20.0
  1
6.3
100
AcDbText
  0
TEXT
  5
31AC
330
31A7
100
AcDbEntity
  8
虚线
  6
ByBlock
 62
     2
 48
0.5
100
AcDbText
 10
1315.106085956566
 20
120.5450534817946
 30
0.0
 40
26.11990623088094
  1
陈家炯
 72
     2
 11
1426.551019208325
 21
120.5450534817946
 31
0.0
100
AcDbText
  0
TEXT
  5
31AD
330
31A7
100
AcDbEntity
  8
标注
100
AcDbText
 10
2026.0551802289
 20
73.28333203544184
 30
0.0
 40
20.0
  1
*
100
AcDbText
  0
TEXT
  5
31AE
330
31A7
100
AcDbEntity
  8
图框
 62
     2
100
AcDbText
 10
1907.847257316345
 20
17.88888888888914
 30
0.0
 40
32.0
  1
佛山市精勤五金公司
 41
0.65
100
AcDbText
  0
LINE
  5
31AF
330
31A7
100
AcDbEntity
  8
图框
 62
     6
100
AcDbLine
 10
2085.333333333334
 20
146.6666666666669
 30
0.0
 11
2085.333333333332
 21
66.66666666666646
 31
0.0
  0
LINE
  5
31B0
330
31A7
100
AcDbEntity
  8
图框
 62
     6
100
AcDbLine
 10
1978.666666666666
 20
146.6666666666668
 30
0.0
 11
1978.666666666668
 21
66.66666666666663
 31
0.0
  0
TEXT
  5
31B1
330
31A7
100
AcDbEntity
  8
图框
 62
     2
100
AcDbText
 10
2004.055555555557
 20
117.888888888889
 30
0.0
 40
20.00000000000002
  1
件数
100
AcDbText
  0
TEXT
  5
31B2
330
31A7
100
AcDbEntity
  8
图框
 62
     2
100
AcDbText
 10
1961.129167634315
 20
170.0
 30
0.0
 40
20.00000000000002
  1
*
100
AcDbText
  0
TEXT
  5
31B3
330
31A7
100
AcDbEntity
  8
图框
 62
     2
100
AcDbText
 10
1899.0
 20
117.9444444444444
 30
0.0
 40
20.00000000000002
  1
比例
100
AcDbText
  0
TEXT
  5
31B4
330
31A7
100
AcDbEntity
  8
图框
 62
     2
100
AcDbText
 10
1903.833333333332
 20
78.00000000000011
 30
0.0
 40
20.00000000000002
  1
1:8
100
AcDbText
  0
TEXT
  5
31B5
330
31A7
100
AcDbEntity
  8
图框
 62
     2
100
AcDbText
 10
1884.333333333332
 20
170.0
 30
0.0
 40
20.00000000000002
  1
图号
100
AcDbText
  0
LINE
  5
31B6
330
31A7
100
AcDbEntity
  8
图框
 62
     6
100
AcDbLine
 10
1872.0
 20
213.3333333333335
 30
0.0
 11
1872.0
 21
0.0
 31
0.0
  0
TEXT
  5
31B7
330
31A7
100
AcDbEntity
  8
图框
 62
     2
100
AcDbText
 10
2096.555555555555
 20
77.72222222222217
 30
0.0
 40
20.00000000000002
  1
第  页
100
AcDbText
  0
TEXT
  5
31B8
330
31A7
100
AcDbEntity
  8
图框
 62
     2
100
AcDbText
 10
2096.5
 20
118.0000000000002
 30
0.0
 40
20.00000000000002
  1
共  页
100
AcDbText
  0
LINE
  5
31B9
330
31A7
100
AcDbEntity
  8
图框
 62
     6
100
AcDbLine
 10
2192.0
 20
66.66666666666628
 30
0.0
 11
1872.0
 21
66.6666666666668
 31
0.0
  0
LINE
  5
31BA
330
31A7
100
AcDbEntity
  8
图框
 62
     6
100
AcDbLine
 10
2192.0
 20
146.6666666666671
 30
0.0
 11
1872.0
 21
146.6666666666667
 31
0.0
  0
TEXT
  5
31BB
330
31A7
100
AcDbEntity
  8
图框
 62
     2
100
AcDbText
 10
1626.867085059621
 20
150.0000000000001
 30
0.0
 40
32.0
  1
*
100
AcDbText
  0
TEXT
  5
31BC
330
31A7
100
AcDbEntity
  8
图框
 62
     2
100
AcDbText
 10
1564.333333333332
 20
123.3333333333334
 30
0.0
 40
20.00000000000002
  1
名称
100
AcDbText
  0
TEXT
  5
31BD
330
31A7
100
AcDbEntity
  8
图框
 62
     2
100
AcDbText
 10
1564.444444444443
 20
16.55555555555565
 30
0.0
 40
20.00000000000002
  1
材料
100
AcDbText
  0
LINE
  5
31BE
330
31A7
100
AcDbEntity
  8
图框
 62
     6
100
AcDbLine
 10
1551.999999999999
 20
213.3333333333335
 30
0.0
 11
1551.999999999999
 21
0.0
 31
0.0
  0
TEXT
  5
31BF
330
31A7
100
AcDbEntity
  8
图框
 62
     2
100
AcDbText
 10
1626.867085059621
 20
43.33333333333337
 30
0.0
 40
32.0
  1
*
100
AcDbText
  0
TEXT
  5
31C0
330
31A7
100
AcDbEntity
  8
图框
 62
     2
100
AcDbText
 10
1244.277777777777
 20
123.2222222222224
 30
0.0
 40
20.00000000000002
  1
绘图
100
AcDbText
  0
TEXT
  5
31C1
330
31A7
100
AcDbEntity
  8
图框
 62
     2
100
AcDbText
 10
1244.333333333332
 20
176.6666666666668
 30
0.0
 40
20.00000000000002
  1
设计
100
AcDbText
  0
TEXT
  5
31C2
330
31A7
100
AcDbEntity
  8
图框
 62
     2
100
AcDbText
 10
1244.444444444443
 20
69.88888888888905
 30
0.0
 40
20.00000000000002
  1
审核
100
AcDbText
  0
TEXT
  5
31C3
330
31A7
100
AcDbEntity
  8
图框
 62
     2
100
AcDbText
 10
1244.055555555555
 20
16.50000000000017
 30
0.0
 40
20.00000000000002
  1
批准
100
AcDbText
  0
LINE
  5
31C4
330
31A7
100
AcDbEntity
  8
图框
 62
     6
100
AcDbLine
 10
1431.999999999999
 20
213.3333333333335
 30
0.0
 11
1431.999999999999
 21
0.0
 31
0.0
  0
LINE
  5
31C5
330
31A7
100
AcDbEntity
  8
图框
 62
     6
100
AcDbLine
 10
1311.999999999999
 20
213.3333333333335
 30
0.0
 11
1311.999999999999
 21
0.0
 31
0.0
  0
LINE
  5
31C6
330
31A7
100
AcDbEntity
  8
图框
 62
     6
100
AcDbLine
 10
1231.999999999999
 20
160.0000000000001
 30
0.0
 11
1551.999999999999
 21
160.0000000000001
 31
0.0
  0
LINE
  5
31C7
330
31A7
100
AcDbEntity
  8
图框
 62
     6
100
AcDbLine
 10
1231.999999999999
 20
53.33333333333337
 30
0.0
 11
1551.999999999999
 21
53.33333333333337
 31
0.0
  0
LWPOLYLINE
  5
31C8
330
31A7
100
AcDbEntity
  8
图框
 62
     6
100
AcDbPolyline
 90
        3
 70
     0
 43
3.333333333333336
 10
1231.999999999999
 20
0.0
 10
1231.999999999999
 20
213.3333333333335
 10
2192.0
 20
213.3333333333335
  0
LINE
  5
31C9
330
31A7
100
AcDbEntity
  8
图框
 62
     6
100
AcDbLine
 10
1231.999999999999
 20
106.6666666666667
 30
0.0
 11
2192.0
 21
106.6666666666667
 31
0.0
  0
LWPOLYLINE
  5
31CA
330
31A7
100
AcDbEntity
  8
图框
100
AcDbPolyline
 90
        4
 70
     1
 43
8.0
 10
0.0
 20
0.0
 10
0.0
 20
1584.0
 10
2192.0
 20
1584.0
 10
2192.0
 20
0.0
  0
ENDBLK
  5
31CC
330
31A7
100
AcDbEntity
  8
0
100
AcDbBlockEnd
  0
ENDSEC
  0
SECTION
  2
ENTITIES
  0
HATCH
  5
13AF
330
18
100
AcDbEntity
  8
DIM
  6
ByBlock
 62
     0
100
AcDbHatch
 10
0.0
 20
0.0
 30
0.0
210
0.0
220
0.0
230
1.0
  2
ANSI31
 70
     0
 71
     0
 91
        1
 92
        5
 93
        9
 72
     4
 94
        3
 73
     0
 74
     0
 95
       10
 96
        6
 40
168.1890314628042
 40
168.1890314628042
 40
168.1890314628042
 40
168.1890314628042
 40
240.3970488653276
 40
404.4385438063731
 40
531.2097876496541
 40
531.2097876496541
 40
531.2097876496541
 40
531.2097876496541
 10
4165.873528971672
 20
4250.06526767953
 10
4166.83331270215
 20
4249.088497912235
 10
4169.191949156389
 20
4245.510851715393
 10
4167.199955670328
 20
4237.269459279845
 10
4169.7428307876
 20
4232.163859854053
 10
4171.247389482842
 20
4230.081439666924
 72
     1
 10
4171.247389482842
 20
4230.081439666924
 11
4213.843716622804
 21
4230.081439666924
 72
     1
 10
4213.843716622804
 20
4230.081439666924
 11
4213.843716622805
 21
4238.33689893249
 72
     1
 10
4213.843716622805
 20
4238.33689893249
 11
4220.443716622805
 21
4238.33689893249
 72
     1
 10
4220.443716622805
 20
4238.33689893249
 11
4220.443716622805
 21
4230.081439666923
 72
     1
 10
4220.443716622805
 20
4230.081439666923
 11
4255.72109289421
 21
4230.081439666924
 72
     1
 10
4255.72109289421
 20
4230.081439666924
 11
4255.721092894209
 21
4247.065267679531
 72
     2
 10
4252.721092894209
 20
4247.065267679531
 40
2.999999999999999
 50
0.0
 51
90.0
 73
     1
 72
     1
 10
4252.721092894209
 20
4250.06526767953
 11
4165.873528971672
 21
4250.06526767953
 97
        0
 75
     0
 76
     1
 52
0.0
 41
0.6000000000000001
 77
     0
 78
     1
 53
45.0
 43
3829.933616554834
 44
4209.444941258861
 45
-1.347038418160372
 46
1.347038418160373
 79
     0
 47
2.847268091439218
 98
        1
 10
4187.970564433768
 20
4241.9534988244
  0
HATCH
  5
13B2
330
18
100
AcDbEntity
  8
DIM
  6
ByBlock
 62
     0
100
AcDbHatch
 10
0.0
 20
0.0
 30
0.0
210
0.0
220
0.0
230
1.0
  2
ANSI31
 70
     0
 71
     0
 91
        2
 92
        7
 72
     0
 73
     1
 93
       12
 10
4215.792372928583
 20
4236.418493918121
 10
4215.343716622805
 20
4236.738141507634
 10
4215.773553112453
 20
4237.076591382931
 10
4215.343716622805
 20
4237.415041840306
 10
4215.781831927285
 20
4237.736898932491
 10
4214.443716622803
 20
4237.736898932491
 10
4214.443716622803
 20
4235.07979626938
 10
4215.724137238725
 20
4235.07979626938
 10
4215.848833473131
 20
4235.158706427936
 10
4215.343716622805
 20
4235.478354017448
 10
4215.830013656997
 20
4235.722790135509
 10
4215.343716622805
 20
4236.136452064335
 97
        0
 92
        7
 72
     0
 73
     1
 93
       13
 10
4219.843716622805
 20
4237.736898932491
 10
4218.505601318322
 20
4237.736898932491
 10
4218.943716622804
 20
4237.415041840306
 10
4218.513880133156
 20
4237.076591382931
 10
4218.912314826741
 20
4236.747538430832
 10
4218.943716622804
 20
4236.738141507634
 10
4218.495060317024
 20
4236.418493918121
 10
4218.943716622804
 20
4236.136452064336
 10
4218.457419588607
 20
4235.722790135509
 10
4218.943716622804
 20
4235.478354017448
 10
4218.438599772475
 20
4235.158706427936
 10
4218.563296006883
 20
4235.07979626938
 10
4219.843716622805
 20
4235.07979626938
 97
        0
 75
     0
 76
     1
 52
270.0
 41
0.06
 77
     0
 78
     1
 53
315.0
 43
3829.933616554834
 44
4209.444941258861
 45
0.1347038418160373
 46
0.1347038418160372
 79
     0
 47
0.4906110457808098
 98
        2
 10
4215.049714336347
 20
4236.206252518318
 10
4219.439847464509
 20
4235.882449426066
  0
HATCH
  5
13B3
330
18
100
AcDbEntity
  8
DIM
  6
ByBlock
 62
     0
100
AcDbHatch
 10
0.0
 20
0.0
 30
0.0
210
0.0
220
0.0
230
1.0
  2
ANSI31
 70
     0
 71
     0
 91
        2
 92
        7
 72
     0
 73
     1
 93
        9
 10
4220.443716622804
 20
4238.33689893249
 10
4218.371426741092
 20
4238.33689893249
 10
4218.371426741092
 20
4237.736898932491
 10
4219.843716622805
 20
4237.736898932491
 10
4219.843716622805
 20
4229.481439666924
 10
4219.867454214873
 20
4229.481439666924
 10
4221.043716622804
 20
4229.481439666924
 10
4221.043716622804
 20
4230.081439666924
 10
4220.443716622804
 20
4230.081439666924
 97
        0
 92
        7
 72
     0
 73
     1
 93
        8
 10
4215.903637309362
 20
4238.33689893249
 10
4213.843716622805
 20
4238.33689893249
 10
4213.843716622805
 20
4230.081439666924
 10
4213.243716622804
 20
4230.081439666924
 10
4213.243716622804
 20
4229.481439666924
 10
4214.443716622803
 20
4229.481439666924
 10
4214.443716622803
 20
4237.736898932491
 10
4215.903637309362
 20
4237.736898932491
 97
        0
 75
     0
 76
     1
 52
0.0
 41
0.12
 77
     0
 78
     1
 53
45.0
 43
3829.933616554834
 44
4209.444941258861
 45
-0.2694076836320746
 46
0.2694076836320747
 79
     0
 47
0.9928036230062964
 98
        2
 10
4219.592639729004
 20
4238.036507917461
 10
4214.286148863575
 20
4237.917371521692
  0
HATCH
  5
1B67
330
18
100
AcDbEntity
  8
0
  6
ByBlock
 62
     0
100
AcDbHatch
 10
0.0
 20
0.0
 30
0.0
210
0.0
220
0.0
230
1.0
  2
ANSI31
 70
     0
 71
     0
 91
        1
 92
        5
 93
        9
 72
     4
 94
        3
 73
     0
 74
     0
 95
       10
 96
        6
 40
168.1890314628042
 40
168.1890314628042
 40
168.1890314628042
 40
168.1890314628042
 40
240.3970488653276
 40
404.4385438063731
 40
531.2097876496541
 40
531.2097876496541
 40
531.2097876496541
 40
531.2097876496541
 10
4158.17205345206
 20
4225.467716719332
 10
4159.208619880979
 20
4224.412805370653
 10
4161.755947251555
 20
4220.548947478063
 10
4159.604594286611
 20
4211.648243647672
 10
4162.350899413263
 20
4206.134196267817
 10
4163.975822804125
 20
4203.885182465717
 72
     1
 10
4163.975822804125
 20
4203.885182465715
 11
4209.979856115283
 21
4203.885182465716
 72
     1
 10
4209.979856115283
 20
4203.885182465716
 11
4209.979856115283
 21
4212.801078472527
 72
     1
 10
4209.979856115283
 20
4212.801078472527
 11
4217.107856115287
 21
4212.801078472527
 72
     1
 10
4217.107856115287
 20
4212.801078472527
 11
4217.107856115287
 21
4203.885182465716
 72
     1
 10
4217.107856115287
 20
4203.885182465716
 11
4255.207422488401
 21
4203.885182465716
 72
     1
 10
4255.207422488401
 20
4203.885182465716
 11
4255.207422488401
 21
4222.227716719332
 72
     2
 10
4251.967422488401
 20
4222.227716719333
 40
3.239999999999781
 50
359.9999999999839
 51
450.0
 73
     1
 72
     1
 10
4251.967422488401
 20
4225.467716719332
 11
4158.17205345206
 21
4225.467716719332
 97
        0
 75
     0
 76
     1
 52
0.0
 41
0.6480000000000001
 77
     0
 78
     1
 53
44.99999999999998
 43
2788.699413560744
 44
4303.020928659647
 45
-1.454801491613202
 46
1.454801491613201
 79
     0
 47
2.847268091439218
 98
        1
 10
3175.379317269996
 20
4338.130170830429
  0
HATCH
  5
1BE4
330
18
100
AcDbEntity
  8
DESHED
  6
ByBlock
100
AcDbHatch
 10
0.0
 20
0.0
 30
0.0
210
0.0
220
0.0
230
1.0
  2
ANSI31
 70
     0
 71
     0
 91
        2
 92
        7
 72
     0
 73
     1
 93
       12
 10
3240.854289981314
 20
4317.449950424491
 10
3240.405633675536
 20
4317.769598014004
 10
3240.835470165183
 20
4318.108047889301
 10
3240.405633675536
 20
4318.446498346676
 10
3240.843748980016
 20
4318.76835543886
 10
3239.505633675535
 20
4318.76835543886
 10
3239.505633675535
 20
4316.111252775749
 10
3240.786054291457
 20
4316.111252775749
 10
3240.910750525863
 20
4316.190162934306
 10
3240.405633675536
 20
4316.509810523818
 10
3240.891930709729
 20
4316.754246641879
 10
3240.405633675536
 20
4317.167908570705
 97
        0
 92
        7
 72
     0
 73
     1
 93
       13
 10
3244.905633675536
 20
4318.76835543886
 10
3243.567518371053
 20
4318.76835543886
 10
3244.005633675536
 20
4318.446498346676
 10
3243.575797185888
 20
4318.108047889301
 10
3243.974231879473
 20
4317.778994937202
 10
3244.005633675536
 20
4317.769598014004
 10
3243.556977369755
 20
4317.449950424491
 10
3244.005633675536
 20
4317.167908570706
 10
3243.519336641339
 20
4316.754246641879
 10
3244.005633675536
 20
4316.509810523818
 10
3243.500516825206
 20
4316.190162934306
 10
3243.625213059614
 20
4316.111252775749
 10
3244.905633675536
 20
4316.111252775749
 97
        0
 75
     0
 76
     1
 52
270.0
 41
0.06
 77
     0
 78
     1
 53
315.0
 43
2854.995533607564
 44
4290.476397765231
 45
0.1347038418160373
 46
0.1347038418160372
 79
     0
 47
0.4906110457808098
 98
        2
 10
3240.11163138908
 20
4317.237709024688
 10
3244.50176451724
 20
4316.913905932437
  0
HATCH
  5
1BE5
330
18
100
AcDbEntity
  8
DESHED
  6
ByBlock
100
AcDbHatch
 10
0.0
 20
0.0
 30
0.0
210
0.0
220
0.0
230
1.0
  2
ANSI31
 70
     0
 71
     0
 91
        2
 92
        7
 72
     0
 73
     1
 93
        9
 10
3245.505633675536
 20
4319.36835543886
 10
3243.433343793824
 20
4319.36835543886
 10
3243.433343793824
 20
4318.76835543886
 10
3244.905633675536
 20
4318.76835543886
 10
3244.905633675536
 20
4310.512896173294
 10
3244.929371267604
 20
4310.512896173294
 10
3246.105633675535
 20
4310.512896173294
 10
3246.105633675535
 20
4311.112896173294
 10
3245.505633675536
 20
4311.112896173294
 97
        0
 92
        7
 72
     0
 73
     1
 93
        8
 10
3240.965554362093
 20
4319.36835543886
 10
3238.905633675536
 20
4319.36835543886
 10
3238.905633675536
 20
4311.112896173294
 10
3238.305633675536
 20
4311.112896173294
 10
3238.305633675536
 20
4310.512896173294
 10
3239.505633675535
 20
4310.512896173294
 10
3239.505633675535
 20
4318.76835543886
 10
3240.965554362093
 20
4318.76835543886
 97
        0
 75
     0
 76
     1
 52
0.0
 41
0.12
 77
     0
 78
     1
 53
45.0
 43
2854.995533607564
 44
4290.476397765231
 45
-0.2694076836320746
 46
0.2694076836320747
 79
     0
 47
0.9928036230062964
 98
        2
 10
3244.654556781736
 20
4319.067964423831
 10
3239.348065916307
 20
4318.948828028062
  0
HATCH
  5
257C
330
18
100
AcDbEntity
  8
0
  6
ByBlock
 62
     0
100
AcDbHatch
 10
0.0
 20
0.0
 30
0.0
210
0.0
220
0.0
230
1.0
  2
ANSI31
 70
     0
 71
     0
 91
        1
 92
        5
 93
        9
 72
     4
 94
        3
 73
     0
 74
     0
 95
       10
 96
        6
 40
168.1890314628042
 40
168.1890314628042
 40
168.1890314628042
 40
168.1890314628042
 40
240.3970488653276
 40
404.4385438063731
 40
531.2097876496541
 40
531.2097876496541
 40
531.2097876496541
 40
531.2097876496541
 10
5197.689340519697
 20
4169.450321317491
 10
5198.725906948616
 20
4168.395409968812
 10
5201.273234319192
 20
4164.531552076222
 10
5199.121881354249
 20
4155.63084824583
 10
5201.868186480901
 20
4150.116800865975
 10
5203.493109871763
 20
4147.867787063876
 72
     1
 10
5203.493109871763
 20
4147.867787063876
 11
5249.49714318292
 21
4147.867787063876
 72
     1
 10
5249.49714318292
 20
4147.867787063876
 11
5249.49714318292
 21
4156.783683070687
 72
     1
 10
5249.497143182919
 20
4156.783683070687
 11
5256.625143182923
 21
4156.783683070687
 72
     1
 10
5256.625143182924
 20
4156.783683070687
 11
5256.625143182924
 21
4147.867787063876
 72
     1
 10
5256.625143182924
 20
4147.867787063876
 11
5294.724709556038
 21
4147.867787063876
 72
     1
 10
5294.724709556037
 20
4147.867787063876
 11
5294.724709556037
 21
4166.210321317492
 72
     2
 10
5291.484709556037
 20
4166.210321317492
 40
3.240000000000008
 50
0.0
 51
90.0
 73
     1
 72
     1
 10
5291.484709556037
 20
4169.450321317491
 11
5197.689340519696
 21
4169.450321317491
 97
        0
 75
     0
 76
     1
 52
0.0
 41
0.6480000000000001
 77
     0
 78
     1
 53
44.99999999999998
 43
4834.874235109512
 44
4125.580368783167
 45
-1.454801491613202
 46
1.454801491613201
 79
     0
 47
2.847268091439218
 98
        1
 10
5221.554138818763
 20
4160.689610953951
  0
HATCH
  5
2705
330
18
100
AcDbEntity
  8
0
  6
ByBlock
 62
     0
100
AcDbHatch
 10
0.0
 20
0.0
 30
0.0
210
0.0
220
0.0
230
1.0
  2
ANSI31
 70
     0
 71
     0
 91
        1
 92
        5
 93
        9
 72
     4
 94
        3
 73
     0
 74
     0
 95
       10
 96
        6
 40
168.1890314628042
 40
168.1890314628042
 40
168.1890314628042
 40
168.1890314628042
 40
240.3970488653276
 40
404.4385438063731
 40
531.2097876496541
 40
531.2097876496541
 40
531.2097876496541
 40
531.2097876496541
 10
5140.028267149507
 20
4172.071404702761
 10
5141.064833578425
 20
4171.016493354083
 10
5143.612160949002
 20
4167.152635461493
 10
5141.460807984058
 20
4158.251931631101
 10
5144.207113110709
 20
4152.737884251247
 10
5145.832036501571
 20
4150.488870449147
 72
     1
 10
5145.832036501571
 20
4150.488870449147
 11
5191.836069812729
 21
4150.488870449147
 72
     1
 10
5191.836069812729
 20
4150.488870449147
 11
5191.836069812729
 21
4159.404766455958
 72
     1
 10
5191.836069812728
 20
4159.404766455958
 11
5198.964069812732
 21
4159.404766455958
 72
     1
 10
5198.964069812733
 20
4159.404766455958
 11
5198.964069812733
 21
4150.488870449147
 72
     1
 10
5198.964069812733
 20
4150.488870449147
 11
5237.063636185848
 21
4150.488870449147
 72
     1
 10
5237.063636185846
 20
4150.488870449147
 11
5237.063636185846
 21
4168.831404702762
 72
     2
 10
5233.823636185846
 20
4168.831404702762
 40
3.240000000000008
 50
0.0
 51
90.0
 73
     1
 72
     1
 10
5233.823636185846
 20
4172.071404702761
 11
5140.028267149506
 21
4172.071404702761
 97
        0
 75
     0
 76
     1
 52
0.0
 41
0.6480000000000001
 77
     0
 78
     1
 53
44.99999999999998
 43
4777.213161739321
 44
4128.201452168439
 45
-1.454801491613202
 46
1.454801491613201
 79
     0
 47
2.847268091439218
 98
        1
 10
5163.893065448572
 20
4163.310694339221
  0
HATCH
  5
28A3
330
18
100
AcDbEntity
  8
0
  6
ByBlock
 62
     0
100
AcDbHatch
 10
0.0
 20
0.0
 30
0.0
210
0.0
220
0.0
230
1.0
  2
ANSI31
 70
     0
 71
     0
 91
        1
 92
        5
 93
        9
 72
     1
 10
4276.705854011733
 20
4104.781548573356
 11
4276.705854011733
 21
4123.124082826971
 72
     2
 10
4273.465854011732
 20
4123.124082826971
 40
3.239999999999781
 50
0.0
 51
90.0
 73
     1
 72
     1
 10
4273.465854011732
 20
4126.364082826972
 11
4179.670484975392
 21
4126.364082826972
 72
     4
 94
        3
 73
     0
 74
     0
 95
       10
 96
        6
 40
168.1890314628042
 40
168.1890314628042
 40
168.1890314628042
 40
168.1890314628042
 40
240.3970488653276
 40
404.4385438063731
 40
531.2097876496541
 40
531.2097876496541
 40
531.2097876496541
 40
531.2097876496541
 10
4179.670484975392
 20
4126.364082826972
 10
4180.70705140431
 20
4125.309171478292
 10
4183.254378774887
 20
4121.445313585702
 10
4181.103025809943
 20
4112.544609755311
 10
4183.849330936594
 20
4107.030562375456
 10
4185.474254327457
 20
4104.781548573357
 72
     1
 10
4185.474254327458
 20
4104.781548573356
 11
4231.478287638615
 21
4104.781548573357
 72
     1
 10
4231.478287638615
 20
4104.781548573357
 11
4231.478287638615
 21
4113.697444580167
 72
     1
 10
4231.478287638615
 20
4113.697444580167
 11
4238.606287638618
 21
4113.697444580167
 72
     1
 10
4238.606287638618
 20
4113.697444580167
 11
4238.606287638618
 21
4104.781548573356
 72
     1
 10
4238.606287638618
 20
4104.781548573356
 11
4276.705854011733
 21
4104.781548573356
 97
        0
 75
     0
 76
     1
 52
0.0
 41
0.6480000000000001
 77
     0
 78
     1
 53
44.99999999999998
 43
4894.202995388968
 44
4082.494130292648
 45
-1.454801491613202
 46
1.454801491613201
 79
     0
 47
2.847268091439218
 98
        1
 10
5280.882899098219
 20
4117.60337246343
  0
HATCH
  5
2AA5
330
18
100
AcDbEntity
  8
0
  6
ByBlock
 62
     0
100
AcDbHatch
 10
0.0
 20
0.0
 30
0.0
210
0.0
220
0.0
230
1.0
  2
ANSI31
 70
     0
 71
     0
 91
        1
 92
        5
 93
        9
 72
     1
 10
4181.680926641387
 20
4185.405811780541
 11
4181.680926641387
 21
4195.971111510624
 72
     2
 10
4179.814686641387
 20
4195.971111510624
 40
1.866240000000288
 50
0.0
 51
89.99999999997207
 73
     1
 72
     1
 10
4179.814686641388
 20
4197.837351510624
 11
4125.788554076454
 21
4197.837351510624
 72
     4
 94
        3
 73
     0
 74
     0
 95
       10
 96
        6
 40
168.1890314628042
 40
168.1890314628042
 40
168.1890314628042
 40
168.1890314628042
 40
240.3970488653276
 40
404.4385438063731
 40
531.2097876496541
 40
531.2097876496541
 40
531.2097876496541
 40
531.2097876496541
 10
4125.788554076454
 20
4197.837351510624
 10
4126.385616339512
 20
4197.229722573785
 10
4127.852876904964
 20
4195.004140427655
 10
4126.613697597156
 20
4189.877335021349
 10
4128.195569350107
 20
4186.701243730552
 10
4129.131525223244
 20
4185.405811780543
 72
     1
 10
4129.131525223245
 20
4185.405811780541
 11
4155.629848410471
 21
4185.405811780541
 72
     1
 10
4155.629848410471
 20
4185.405811780541
 11
4155.62984841047
 21
4190.541367880464
 72
     1
 10
4155.62984841047
 20
4190.541367880464
 11
4159.735576410474
 21
4190.541367880464
 72
     1
 10
4159.735576410474
 20
4190.541367880464
 11
4159.735576410473
 21
4185.40581178054
 72
     1
 10
4159.735576410473
 20
4185.40581178054
 11
4181.680926641387
 21
4185.405811780541
 97
        0
 75
     0
 76
     1
 52
0.0
 41
0.373248
 77
     0
 78
     1
 53
44.99999999999995
 43
4692.053922806841
 44
4159.299479385373
 45
-0.8379656591692045
 46
0.8379656591692038
 79
     0
 47
2.847268091439218
 98
        1
 10
4914.78154734337
 20
4179.522402875744
  0
HATCH
  5
2C5D
330
18
100
AcDbEntity
  8
0
  6
ByBlock
 62
     0
100
AcDbHatch
 10
0.0
 20
0.0
 30
0.0
210
0.0
220
0.0
230
1.0
  2
ANSI31
 70
     0
 71
     0
 91
        1
 92
        5
 93
        9
 72
     4
 94
        3
 73
     0
 74
     0
 95
       10
 96
        6
 40
168.1890314628042
 40
168.1890314628042
 40
168.1890314628042
 40
168.1890314628042
 40
240.3970488653276
 40
404.4385438063731
 40
531.2097876496541
 40
531.2097876496541
 40
531.2097876496541
 40
531.2097876496541
 10
5191.707204165576
 20
4220.544211467319
 10
5192.536457308717
 20
4219.700282388375
 10
5194.574319205176
 20
4216.609196074303
 10
5192.853236833226
 20
4209.488633009989
 10
5195.050280934547
 20
4205.077395106104
 10
5196.350219647236
 20
4203.278184064425
 72
     1
 10
5196.350219647235
 20
4203.278184064425
 11
5233.153446296159
 21
4203.278184064425
 72
     1
 10
5233.153446296159
 20
4203.278184064425
 11
5233.153446296159
 21
4210.410900869874
 72
     1
 10
5233.153446296159
 20
4210.410900869874
 11
5238.855846296168
 21
4210.410900869874
 72
     1
 10
5238.855846296168
 20
4210.410900869874
 11
5238.855846296168
 21
4203.278184064425
 72
     1
 10
5238.855846296168
 20
4203.278184064425
 11
5269.335499394649
 21
4203.278184064425
 72
     1
 10
5269.335499394649
 20
4203.278184064425
 11
5269.335499394649
 21
4217.952211467316
 72
     2
 10
5266.74349939465
 20
4217.952211467318
 40
2.59200000000004
 50
359.9999999999724
 51
450.00000000001
 73
     1
 72
     1
 10
5266.743499394648
 20
4220.544211467319
 11
5191.707204165575
 21
4220.544211467319
 97
        0
 75
     0
 76
     1
 52
0.0
 41
0.5184000000000001
 77
     0
 78
     1
 53
44.99999999999998
 43
4901.455119837435
 44
4185.448249439858
 45
-1.163841193290561
 46
1.163841193290561
 79
     0
 47
2.847268091439218
 98
        1
 10
5210.799042804829
 20
4213.535643176484
  0
HATCH
  5
2E31
330
18
100
AcDbEntity
  8
0
  6
ByBlock
 62
     0
100
AcDbHatch
 10
0.0
 20
0.0
 30
0.0
210
0.0
220
0.0
230
1.0
  2
ANSI31
 70
     0
 71
     0
 91
        1
 92
        5
 93
        9
 72
     2
 10
4232.001137673164
 20
4163.789647382256
 40
3.239999999999781
 50
359.9999999999839
 51
450.0
 73
     1
 72
     1
 10
4232.001137673164
 20
4167.029647382256
 11
4138.205768636823
 21
4167.029647382256
 72
     4
 94
        3
 73
     0
 74
     0
 95
       10
 96
        6
 40
168.1890314628042
 40
168.1890314628042
 40
168.1890314628042
 40
168.1890314628042
 40
240.3970488653276
 40
404.4385438063731
 40
531.2097876496541
 40
531.2097876496541
 40
531.2097876496541
 40
531.2097876496541
 10
4138.205768636823
 20
4167.029647382256
 10
4139.242335065741
 20
4165.974736033577
 10
4141.789662436319
 20
4162.110878140987
 10
4139.638309471375
 20
4153.210174310596
 10
4142.384614598027
 20
4147.69612693074
 10
4144.009537988888
 20
4145.447113128641
 72
     1
 10
4144.009537988888
 20
4145.44711312864
 11
4190.013571300046
 21
4145.447113128638
 72
     1
 10
4190.013571300046
 20
4145.447113128638
 11
4190.013571300046
 21
4154.363009135451
 72
     1
 10
4190.013571300046
 20
4154.363009135451
 11
4197.14157130005
 21
4154.363009135451
 72
     1
 10
4197.14157130005
 20
4154.363009135451
 11
4197.14157130005
 21
4145.447113128638
 72
     1
 10
4197.14157130005
 20
4145.447113128638
 11
4235.241137673164
 21
4145.44711312864
 72
     1
 10
4235.241137673164
 20
4145.44711312864
 11
4235.241137673164
 21
4163.789647382255
 97
        0
 75
     0
 76
     1
 52
0.0
 41
0.6480000000000001
 77
     0
 78
     1
 53
44.99999999999998
 43
4569.498166837383
 44
4162.233527254755
 45
-1.454801491613202
 46
1.454801491613201
 79
     0
 47
2.847268091439218
 98
        1
 10
4956.178070546634
 20
4197.342769425537
  0
LWPOLYLINE
  5
303A
330
18
100
AcDbEntity
  8
0
 62
     0
 48
3.0
100
AcDbPolyline
 90
        8
 70
     1
 43
0.0
 10
3797.225646002568
 20
4291.854018504382
 10
4299.225646002567
 20
4291.854018504382
 42
-0.4142135623730951
 10
4314.225646002568
 20
4276.854018504383
 10
4314.225646002568
 20
3900.854018504382
 42
-0.4142135623730951
 10
4299.225646002567
 20
3885.854018504382
 10
3797.225646002568
 20
3885.854018504382
 42
-0.4142135623730951
 10
3782.225646002568
 20
3900.854018504382
 10
3782.225646002568
 20
4276.854018504383
 42
-0.4142135623730951
  0
HATCH
  5
30CD
330
18
100
AcDbEntity
  8
0
  6
ByBlock
 62
     5
100
AcDbHatch
 10
0.0
 20
0.0
 30
0.0
210
0.0
220
0.0
230
1.0
  2
ANSI31
 70
     0
 71
     0
 91
        1
 92
        5
 93
        9
 72
     1
 10
4229.035516032841
 20
4134.559076891757
 11
4229.035516032841
 21
4152.167909775226
 72
     2
 10
4225.925116032841
 20
4152.167909775228
 40
3.110399999999571
 50
359.9999999999497
 51
449.9999999999832
 73
     1
 72
     1
 10
4225.925116032843
 20
4155.278309775228
 11
4135.881561757953
 21
4155.278309775228
 72
     4
 94
        3
 73
     0
 74
     0
 95
       10
 96
        6
 40
168.1890314628042
 40
168.1890314628042
 40
168.1890314628042
 40
168.1890314628042
 40
240.3970488653276
 40
404.4385438063731
 40
531.2097876496541
 40
531.2097876496541
 40
531.2097876496541
 40
531.2097876496541
 10
4135.881561757954
 20
4155.278309775228
 10
4136.876665529725
 20
4154.265594880494
 10
4139.322099805474
 20
4150.55629130361
 10
4137.256800959133
 20
4142.011615626434
 10
4139.893253880719
 20
4136.718130141772
 10
4141.453180335946
 20
4134.559076891757
 72
     1
 10
4141.453180335946
 20
4134.559076891757
 11
4185.617052314654
 21
4134.559076891758
 72
     1
 10
4185.617052314654
 20
4134.559076891758
 11
4185.617052314653
 21
4143.118337058295
 72
     1
 10
4185.617052314653
 20
4143.118337058295
 11
4192.459932314664
 21
4143.118337058295
 72
     1
 10
4192.459932314664
 20
4143.118337058295
 11
4192.459932314664
 21
4134.559076891758
 72
     1
 10
4192.459932314664
 20
4134.559076891758
 11
4229.035516032841
 21
4134.559076891757
 97
        0
 75
     0
 76
     1
 52
0.0
 41
0.6220800000000001
 77
     0
 78
     1
 53
44.99999999999996
 43
4697.375581055783
 44
4113.163155342275
 45
-1.396609431948674
 46
1.396609431948673
 79
     0
 47
2.847268091439218
 98
        1
 10
5068.588288616654
 20
4146.868027826227
  0
ENDSEC
  0
SECTION
  2
OBJECTS
  0
DICTIONARY
  5
C
330
0
100
AcDbDictionary
281
     1
  3
ACAD_COLOR
350
178
  3
ACAD_GROUP
350
D
  3
ACAD_LAYOUT
350
179
  3
ACAD_MATERIAL
350
177
  3
ACAD_MLEADERSTYLE
350
3271
  3
ACAD_MLINESTYLE
350
1B
  3
ACAD_PLOTSETTINGS
350
17A
  3
ACAD_PLOTSTYLENAME
350
175
  3
ACAD_SCALELIST
350
325F
  3
ACAD_TABLESTYLE
350
325D
  3
ACAD_VISUALSTYLE
350
324C
  3
ACDB_RECOMPOSE_DATA
350
32A9
  3
AcDbVariableDictionary
350
19E
  3
ASE_INDEX_DICTIONARY
350
2BA
  3
DWGPROPS
350
32AA
  0
DICTIONARY
  5
9C9
330
2
100
AcDbDictionary
280
     1
281
     1
  3
ACAD_LAYERSTATES
360
9CA
  0
DICTIONARY
  5
327C
330
E
100
AcDbDictionary
280
     1
281
     1
  3
ADSK_XREC_LAYER_RECONCILED
360
327D
  0
DICTIONARY
  5
327E
330
81
100
AcDbDictionary
280
     1
281
     1
  3
ADSK_XREC_LAYER_RECONCILED
360
327F
  0
DICTIONARY
  5
3280
330
82
100
AcDbDictionary
280
     1
281
     1
  3
ADSK_XREC_LAYER_RECONCILED
360
3281
  0
DICTIONARY
  5
3282
330
18D
100
AcDbDictionary
280
     1
281
     1
  3
ADSK_XREC_LAYER_RECONCILED
360
3283
  0
DICTIONARY
  5
3284
330
7A6
100
AcDbDictionary
280
     1
281
     1
  3
ADSK_XREC_LAYER_RECONCILED
360
3285
  0
DICTIONARY
  5
3286
330
F76
100
AcDbDictionary
280
     1
281
     1
  3
ADSK_XREC_LAYER_RECONCILED
360
3287
  0
DICTIONARY
  5
3288
330
125C
100
AcDbDictionary
280
     1
281
     1
  3
ADSK_XREC_LAYER_RECONCILED
360
3289
  0
DICTIONARY
  5
328A
330
198C
100
AcDbDictionary
280
     1
281
     1
  3
ADSK_XREC_LAYER_RECONCILED
360
328B
  0
DICTIONARY
  5
328C
330
198D
100
AcDbDictionary
280
     1
281
     1
  3
ADSK_XREC_LAYER_RECONCILED
360
328D
  0
DICTIONARY
  5
328E
330
31A6
100
AcDbDictionary
280
     1
281
     1
  3
ADSK_XREC_LAYER_RECONCILED
360
328F
  0
DICTIONARY
  5
178
102
{ACAD_REACTORS
330
C
102
}
330
C
100
AcDbDictionary
281
     1
  0
DICTIONARY
  5
D
102
{ACAD_REACTORS
330
C
102
}
330
C
100
AcDbDictionary
281
     1
  0
DICTIONARY
  5
179
102
{ACAD_REACTORS
330
C
102
}
330
C
100
AcDbDictionary
281
     1
  3
Model
350
17B
  3
布局1
350
17C
  0
DICTIONARY
  5
177
102
{ACAD_REACTORS
330
C
102
}
330
C
100
AcDbDictionary
281
     1
  3
ByBlock
350
3244
  3
ByLayer
350
323C
  3
Global
350
9C0
  0
DICTIONARY
  5
3271
102
{ACAD_REACTORS
330
C
102
}
330
C
100
AcDbDictionary
281
     1
  3
Standard
350
3272
  0
DICTIONARY
  5
1B
102
{ACAD_REACTORS
330
C
102
}
330
C
100
AcDbDictionary
281
     1
  3
STANDARD
350
1C
  0
DICTIONARY
  5
17A
102
{ACAD_REACTORS
330
C
102
}
330
C
100
AcDbDictionary
281
     1
  0
ACDBDICTIONARYWDFLT
  5
175
102
{ACAD_REACTORS
330
C
102
}
330
C
100
AcDbDictionary
281
     1
  3
Normal
350
176
100
AcDbDictionaryWithDefault
340
176
  0
DICTIONARY
  5
325F
102
{ACAD_REACTORS
330
C
102
}
330
C
100
AcDbDictionary
281
     1
  3
A0
350
3260
  3
A1
350
3261
  3
A2
350
3262
  3
A3
350
3263
  3
A4
350
3264
  3
A5
350
3265
  3
A6
350
3266
  3
A7
350
3267
  3
A8
350
3268
  3
A9
350
3269
  3
B0
350
326A
  3
B1
350
326B
  3
B2
350
326C
  3
B3
350
326D
  3
B4
350
326E
  3
B5
350
326F
  3
B6
350
3270
  0
DICTIONARY
  5
325D
102
{ACAD_REACTORS
330
C
102
}
330
C
100
AcDbDictionary
281
     1
  3
Standard
350
325E
  0
DICTIONARY
  5
324C
102
{ACAD_REACTORS
330
C
102
}
330
C
100
AcDbDictionary
281
     1
  3
2dWireframe
350
3252
  3
3D Hidden
350
3254
  3
3dWireframe
350
3253
  3
Basic
350
3251
  3
Brighten
350
3258
  3
ColorChange
350
325C
  3
Conceptual
350
3255
  3
Dim
350
3257
  3
Facepattern
350
325B
  3
Flat
350
324D
  3
FlatWithEdges
350
324E
  3
Gouraud
350
324F
  3
GouraudWithEdges
350
3250
  3
Linepattern
350
325A
  3
Realistic
350
3256
  3
Thicken
350
3259
  0
XRECORD
  5
32A9
102
{ACAD_REACTORS
330
C
102
}
330
C
100
AcDbXrecord
280
     1
 90
        1
330
325E
  0
DICTIONARY
  5
19E
102
{ACAD_REACTORS
330
C
102
}
330
C
100
AcDbDictionary
281
     1
  3
CANNOSCALE
350
3292
  3
CMLEADERSTYLE
350
3291
  3
CTABLESTYLE
350
3290
  3
DIMASSOC
350
19F
  3
INDEXCTL
350
3294
  3
PROJECTNAME
350
1A0
  3
SORTENTS
350
3293
  0
DICTIONARY
  5
2BA
102
{ACAD_REACTORS
330
C
102
}
330
C
100
AcDbDictionary
281
     1
  3
ASEBlockHierarchyIndexRecord
350
2BC
1001
DCO15
1040
1560505907.343
  0
XRECORD
  5
32AA
102
{ACAD_REACTORS
330
C
102
}
330
C
100
AcDbXrecord
280
     1
  1
DWGPROPS COOKIE
  2

  3

  4

  6

  7

  8
Jonathan
  9

300
=
301
=
302
=
303
=
304
=
305
=
306
=
307
=
308
=
309
=
 40
1.165816331018518
 41
2453155.539762732
 42
2456561.408738403
  1

 90
        0
  0
DICTIONARY
  5
9CA
102
{ACAD_REACTORS
330
9C9
102
}
330
9C9
100
AcDbDictionary
281
     1
  0
XRECORD
  5
327D
102
{ACAD_REACTORS
330
327C
102
}
330
327C
100
AcDbXrecord
280
     1
290
     1
  0
XRECORD
  5
327F
102
{ACAD_REACTORS
330
327E
102
}
330
327E
100
AcDbXrecord
280
     1
290
     1
  0
XRECORD
  5
3281
102
{ACAD_REACTORS
330
3280
102
}
330
3280
100
AcDbXrecord
280
     1
290
     1
  0
XRECORD
  5
3283
102
{ACAD_REACTORS
330
3282
102
}
330
3282
100
AcDbXrecord
280
     1
290
     1
  0
XRECORD
  5
3285
102
{ACAD_REACTORS
330
3284
102
}
330
3284
100
AcDbXrecord
280
     1
290
     1
  0
XRECORD
  5
3287
102
{ACAD_REACTORS
330
3286
102
}
330
3286
100
AcDbXrecord
280
     1
290
     1
  0
XRECORD
  5
3289
102
{ACAD_REACTORS
330
3288
102
}
330
3288
100
AcDbXrecord
280
     1
290
     1
  0
XRECORD
  5
328B
102
{ACAD_REACTORS
330
328A
102
}
330
328A
100
AcDbXrecord
280
     1
290
     1
  0
XRECORD
  5
328D
102
{ACAD_REACTORS
330
328C
102
}
330
328C
100
AcDbXrecord
280
     1
290
     1
  0
XRECORD
  5
328F
102
{ACAD_REACTORS
330
328E
102
}
330
328E
100
AcDbXrecord
280
     1
290
     1
  0
LAYOUT
  5
17B
102
{ACAD_XDICTIONARY
360
32AB
102
}
102
{ACAD_REACTORS
330
179
102
}
330
179
100
AcDbPlotSettings
  1

  2
Canon LBP2900
  4
User256
  6

 40
5.789082999999999
 41
6.805102999999999
 42
5.789093
 43
4.773070999999999
 44
210.057999
 45
297.095337
 46
0.0
 47
0.0
 48
3371.33961
 49
-2238.238489
140
8761.424583
141
2597.949347
142
1.0
143
4.991011362522094
 70
 11952
 72
     1
 73
     1
 74
     1
  7
acad.ctb
 75
     0
147
0.2003601930280264
148
-3444.227318124184
149
-3554.88510105409
100
AcDbLayout
  1
Model
 70
     1
 71
     0
 10
0.0
 20
0.0
 11
12.0
 21
9.0
 12
0.0
 22
0.0
 32
0.0
 14
0.0
 24
0.0
 34
0.0
 15
0.0
 25
0.0
 35
0.0
146
0.0
 13
0.0
 23
0.0
 33
0.0
 16
1.0
 26
0.0
 36
0.0
 17
0.0
 27
1.0
 37
0.0
 76
     0
330
18
331
323A
  0
LAYOUT
  5
17C
102
{ACAD_XDICTIONARY
360
32AD
102
}
102
{ACAD_REACTORS
330
179
102
}
330
179
100
AcDbPlotSettings
  1

  2
C:\Documents and Settings\yingao\Application Data\Autodesk\AutoCAD 2004\R16.0\chs\plotters\PublishToWeb PNG.pc3
  4

  6

 40
0.0
 41
0.0
 42
0.0
 43
0.0
 44
0.0
 45
0.0
 46
0.0
 47
0.0
 48
0.0
 49
0.0
140
0.0
141
0.0
142
1.0
143
1.0
 70
   688
 72
     0
 73
     0
 74
     5
  7

 75
    16
147
1.0
148
0.0
149
0.0
100
AcDbLayout
  1
布局1
 70
     1
 71
     1
 10
0.0
 20
0.0
 11
420.0
 21
297.0
 12
0.0
 22
0.0
 32
0.0
 14
1.000000000000000E+20
 24
1.000000000000000E+20
 34
1.000000000000000E+20
 15
-1.000000000000000E+20
 25
-1.000000000000000E+20
 35
-1.000000000000000E+20
146
0.0
 13
0.0
 23
0.0
 33
0.0
 16
1.0
 26
0.0
 36
0.0
 17
0.0
 27
1.0
 37
0.0
 76
     0
330
15
  0
MATERIAL
  5
3244
102
{ACAD_XDICTIONARY
360
3245
102
}
102
{ACAD_REACTORS
330
177
102
}
330
177
100
AcDbMaterial
  1
ByBlock
 72
     0
 43
0.0208333333333333
 43
0.0
 43
0.0
 43
0.0
 43
0.0
 43
0.0208333333333333
 43
0.0
 43
0.0
 43
0.0
 43
0.0
 43
1.0
 43
0.0
 43
0.0
 43
0.0
 43
0.0
 43
1.0
 77
     0
 47
0.0208333333333333
 47
0.0
 47
0.0
 47
0.0
 47
0.0
 47
0.0208333333333333
 47
0.0
 47
0.0
 47
0.0
 47
0.0
 47
1.0
 47
0.0
 47
0.0
 47
0.0
 47
0.0
 47
1.0
171
     0
 49
0.0208333333333333
 49
0.0
 49
0.0
 49
0.0
 49
0.0
 49
0.0208333333333333
 49
0.0
 49
0.0
 49
0.0
 49
0.0
 49
1.0
 49
0.0
 49
0.0
 49
0.0
 49
0.0
 49
1.0
175
     0
142
0.0208333333333333
142
0.0
142
0.0
142
0.0
142
0.0
142
0.0208333333333333
142
0.0
142
0.0
142
0.0
142
0.0
142
1.0
142
0.0
142
0.0
142
0.0
142
0.0
142
1.0
179
     0
144
0.0208333333333333
144
0.0
144
0.0
144
0.0
144
0.0
144
0.0208333333333333
144
0.0
144
0.0
144
0.0
144
0.0
144
1.0
144
0.0
144
0.0
144
0.0
144
0.0
144
1.0
147
0.0208333333333333
147
0.0
147
0.0
147
0.0
147
0.0
147
0.0208333333333333
147
0.0
147
0.0
147
0.0
147
0.0
147
1.0
147
0.0
147
0.0
147
0.0
147
0.0
147
1.0
  0
MATERIAL
  5
323C
102
{ACAD_XDICTIONARY
360
323D
102
}
102
{ACAD_REACTORS
330
177
102
}
330
177
100
AcDbMaterial
  1
ByLayer
 72
     0
 43
0.0208333333333333
 43
0.0
 43
0.0
 43
0.0
 43
0.0
 43
0.0208333333333333
 43
0.0
 43
0.0
 43
0.0
 43
0.0
 43
1.0
 43
0.0
 43
0.0
 43
0.0
 43
0.0
 43
1.0
 77
     0
 47
0.0208333333333333
 47
0.0
 47
0.0
 47
0.0
 47
0.0
 47
0.0208333333333333
 47
0.0
 47
0.0
 47
0.0
 47
0.0
 47
1.0
 47
0.0
 47
0.0
 47
0.0
 47
0.0
 47
1.0
171
     0
 49
0.0208333333333333
 49
0.0
 49
0.0
 49
0.0
 49
0.0
 49
0.0208333333333333
 49
0.0
 49
0.0
 49
0.0
 49
0.0
 49
1.0
 49
0.0
 49
0.0
 49
0.0
 49
0.0
 49
1.0
175
     0
142
0.0208333333333333
142
0.0
142
0.0
142
0.0
142
0.0
142
0.0208333333333333
142
0.0
142
0.0
142
0.0
142
0.0
142
1.0
142
0.0
142
0.0
142
0.0
142
0.0
142
1.0
179
     0
144
0.0208333333333333
144
0.0
144
0.0
144
0.0
144
0.0
144
0.0208333333333333
144
0.0
144
0.0
144
0.0
144
0.0
144
1.0
144
0.0
144
0.0
144
0.0
144
0.0
144
1.0
147
0.0208333333333333
147
0.0
147
0.0
147
0.0
147
0.0
147
0.0208333333333333
147
0.0
147
0.0
147
0.0
147
0.0
147
1.0
147
0.0
147
0.0
147
0.0
147
0.0
147
1.0
  0
MATERIAL
  5
9C0
102
{ACAD_XDICTIONARY
360
9C1
102
}
102
{ACAD_REACTORS
330
177
102
}
330
177
100
AcDbMaterial
  1
Global
 72
     0
 43
0.0208333333333333
 43
0.0
 43
0.0
 43
0.0
 43
0.0
 43
0.0208333333333333
 43
0.0
 43
0.0
 43
0.0
 43
0.0
 43
1.0
 43
0.0
 43
0.0
 43
0.0
 43
0.0
 43
1.0
 77
     0
 47
0.0208333333333333
 47
0.0
 47
0.0
 47
0.0
 47
0.0
 47
0.0208333333333333
 47
0.0
 47
0.0
 47
0.0
 47
0.0
 47
1.0
 47
0.0
 47
0.0
 47
0.0
 47
0.0
 47
1.0
171
     0
 49
0.0208333333333333
 49
0.0
 49
0.0
 49
0.0
 49
0.0
 49
0.0208333333333333
 49
0.0
 49
0.0
 49
0.0
 49
0.0
 49
1.0
 49
0.0
 49
0.0
 49
0.0
 49
0.0
 49
1.0
175
     0
142
0.0208333333333333
142
0.0
142
0.0
142
0.0
142
0.0
142
0.0208333333333333
142
0.0
142
0.0
142
0.0
142
0.0
142
1.0
142
0.0
142
0.0
142
0.0
142
0.0
142
1.0
179
     0
144
0.0208333333333333
144
0.0
144
0.0
144
0.0
144
0.0
144
0.0208333333333333
144
0.0
144
0.0
144
0.0
144
0.0
144
1.0
144
0.0
144
0.0
144
0.0
144
0.0
144
1.0
147
0.0208333333333333
147
0.0
147
0.0
147
0.0
147
0.0
147
0.0208333333333333
147
0.0
147
0.0
147
0.0
147
0.0
147
1.0
147
0.0
147
0.0
147
0.0
147
0.0
147
1.0
  0
MLEADERSTYLE
  5
3272
102
{ACAD_REACTORS
330
3271
102
}
330
3271
100
AcDbMLeaderStyle
170
     2
171
     1
172
     0
 90
        2
 40
0.0
 41
0.0
173
     1
 91
-1056964608
340
12
 92
       -2
290
     1
 42
2.0
291
     1
 43
0.36
  3
Standard
 44
4.0
300

342
F
174
     1
178
     6
175
     1
176
     0
 93
-1056964608
 45
4.0
292
     0
297
     0
 46
4.0
 94
-1056964608
 47
1.0
 49
1.0
140
1.0
293
     1
141
0.0
294
     1
177
     0
142
1.0
295
     0
296
     0
143
0.125
1001
ACAD_MLEADERVER
1070
     2
  0
MLINESTYLE
  5
1C
102
{ACAD_REACTORS
330
1B
102
}
330
1B
100
AcDbMlineStyle
  2
STANDARD
 70
     0
  3

 62
   256
 51
90.0
 52
90.0
 71
     2
 49
0.5
 62
   256
  6
BYLAYER
 49
-0.5
 62
   256
  6
BYLAYER
  0
ACDBPLACEHOLDER
  5
176
102
{ACAD_REACTORS
330
175
102
}
330
175
  0
SCALE
  5
3260
102
{ACAD_REACTORS
330
325F
102
}
330
325F
100
AcDbScale
 70
     0
300
1:1
140
1.0
141
1.0
290
     1
  0
SCALE
  5
3261
102
{ACAD_REACTORS
330
325F
102
}
330
325F
100
AcDbScale
 70
     0
300
1:2
140
1.0
141
2.0
290
     0
  0
SCALE
  5
3262
102
{ACAD_REACTORS
330
325F
102
}
330
325F
100
AcDbScale
 70
     0
300
1:4
140
1.0
141
4.0
290
     0
  0
SCALE
  5
3263
102
{ACAD_REACTORS
330
325F
102
}
330
325F
100
AcDbScale
 70
     0
300
1:5
140
1.0
141
5.0
290
     0
  0
SCALE
  5
3264
102
{ACAD_REACTORS
330
325F
102
}
330
325F
100
AcDbScale
 70
     0
300
1:8
140
1.0
141
8.0
290
     0
  0
SCALE
  5
3265
102
{ACAD_REACTORS
330
325F
102
}
330
325F
100
AcDbScale
 70
     0
300
1:10
140
1.0
141
10.0
290
     0
  0
SCALE
  5
3266
102
{ACAD_REACTORS
330
325F
102
}
330
325F
100
AcDbScale
 70
     0
300
1:16
140
1.0
141
16.0
290
     0
  0
SCALE
  5
3267
102
{ACAD_REACTORS
330
325F
102
}
330
325F
100
AcDbScale
 70
     0
300
1:20
140
1.0
141
20.0
290
     0
  0
SCALE
  5
3268
102
{ACAD_REACTORS
330
325F
102
}
330
325F
100
AcDbScale
 70
     0
300
1:30
140
1.0
141
30.0
290
     0
  0
SCALE
  5
3269
102
{ACAD_REACTORS
330
325F
102
}
330
325F
100
AcDbScale
 70
     0
300
1:40
140
1.0
141
40.0
290
     0
  0
SCALE
  5
326A
102
{ACAD_REACTORS
330
325F
102
}
330
325F
100
AcDbScale
 70
     0
300
1:50
140
1.0
141
50.0
290
     0
  0
SCALE
  5
326B
102
{ACAD_REACTORS
330
325F
102
}
330
325F
100
AcDbScale
 70
     0
300
1:100
140
1.0
141
100.0
290
     0
  0
SCALE
  5
326C
102
{ACAD_REACTORS
330
325F
102
}
330
325F
100
AcDbScale
 70
     0
300
2:1
140
2.0
141
1.0
290
     0
  0
SCALE
  5
326D
102
{ACAD_REACTORS
330
325F
102
}
330
325F
100
AcDbScale
 70
     0
300
4:1
140
4.0
141
1.0
290
     0
  0
SCALE
  5
326E
102
{ACAD_REACTORS
330
325F
102
}
330
325F
100
AcDbScale
 70
     0
300
8:1
140
8.0
141
1.0
290
     0
  0
SCALE
  5
326F
102
{ACAD_REACTORS
330
325F
102
}
330
325F
100
AcDbScale
 70
     0
300
10:1
140
10.0
141
1.0
290
     0
  0
SCALE
  5
3270
102
{ACAD_REACTORS
330
325F
102
}
330
325F
100
AcDbScale
 70
     0
300
100:1
140
100.0
141
1.0
290
     0
  0
TABLESTYLE
  5
325E
102
{ACAD_XDICTIONARY
360
32A7
102
}
102
{ACAD_REACTORS
330
325D
102
}
330
325D
100
AcDbTableStyle
  3
Standard
 70
     0
 71
     0
 40
1.5
 41
1.5
280
     0
281
     0
  7
STANDARD
140
4.5
170
     2
 62
     0
 63
     7
283
     0
274
    -2
284
     1
 64
     0
275
    -2
285
     1
 65
     0
276
    -2
286
     1
 66
     0
277
    -2
287
     1
 67
     0
278
    -2
288
     1
 68
     0
279
    -2
289
     1
 69
     0
  7
STANDARD
140
6.0
170
     5
 62
     0
 63
     7
283
     0
274
    -2
284
     1
 64
     0
275
    -2
285
     1
 65
     0
276
    -2
286
     1
 66
     0
277
    -2
287
     1
 67
     0
278
    -2
288
     1
 68
     0
279
    -2
289
     1
 69
     0
  7
STANDARD
140
4.5
170
     5
 62
     0
 63
     7
283
     0
274
    -2
284
     1
 64
     0
275
    -2
285
     1
 65
     0
276
    -2
286
     1
 66
     0
277
    -2
287
     1
 67
     0
278
    -2
288
     1
 68
     0
279
    -2
289
     1
 69
     0
  0
VISUALSTYLE
  5
3252
102
{ACAD_REACTORS
330
324C
102
}
330
324C
100
AcDbVisualStyle
  2
2dWireframe
 70
     4
 71
     0
 72
     2
 73
     0
 90
        0
 40
-0.6
 41
-30.0
 62
     5
 63
     7
 74
     1
 91
        4
 64
     7
 65
   257
 75
     1
175
     1
 42
1.0
 92
        0
 66
   257
 43
1.0
 76
     1
 77
     6
 78
     2
 67
     7
 79
     5
170
     0
171
     0
290
     0
174
     0
 93
        1
 44
0.0
173
     0
291
     0
 45
0.0
1001
ACAD
1000
AcDbSavedByObjectVersion
1070
     0
  0
VISUALSTYLE
  5
3254
102
{ACAD_REACTORS
330
324C
102
}
330
324C
100
AcDbVisualStyle
  2
3D Hidden
 70
     6
 71
     1
 72
     2
 73
     2
 90
        0
 40
-0.6
 41
-30.0
 62
     5
 63
     7
 74
     2
 91
        2
 64
     7
 65
   257
 75
     2
175
     1
 42
40.0
 92
        0
 66
   257
 43
1.0
 76
     1
 77
     6
 78
     2
 67
     7
 79
     3
170
     0
171
     0
290
     0
174
     0
 93
        1
 44
0.0
173
     0
291
     0
 45
0.0
1001
ACAD
1000
AcDbSavedByObjectVersion
1070
     0
  0
VISUALSTYLE
  5
3253
102
{ACAD_REACTORS
330
324C
102
}
330
324C
100
AcDbVisualStyle
  2
3dWireframe
 70
     5
 71
     0
 72
     2
 73
     0
 90
        0
 40
-0.6
 41
-30.0
 62
     5
 63
     7
 74
     1
 91
        4
 64
     7
 65
   257
 75
     1
175
     1
 42
1.0
 92
        0
 66
   257
 43
1.0
 76
     1
 77
     6
 78
     2
 67
     7
 79
     5
170
     0
171
     0
290
     0
174
     0
 93
        1
 44
0.0
173
     0
291
     0
 45
0.0
1001
ACAD
1000
AcDbSavedByObjectVersion
1070
     0
  0
VISUALSTYLE
  5
3251
102
{ACAD_REACTORS
330
324C
102
}
330
324C
100
AcDbVisualStyle
  2
Basic
 70
     7
 71
     1
 72
     0
 73
     1
 90
        0
 40
-0.6
 41
-30.0
 62
     5
 63
     7
 74
     0
 91
        4
 64
     7
 65
   257
 75
     1
175
     1
 42
1.0
 92
        8
 66
     7
 43
1.0
 76
     1
 77
     6
 78
     2
 67
     7
 79
     5
170
     0
171
     0
290
     0
174
     0
 93
        1
 44
0.0
173
     0
291
     1
 45
0.0
1001
ACAD
1000
AcDbSavedByObjectVersion
1070
     0
  0
VISUALSTYLE
  5
3258
102
{ACAD_REACTORS
330
324C
102
}
330
324C
100
AcDbVisualStyle
  2
Brighten
 70
    12
 71
     2
 72
     2
 73
     0
 90
        0
 40
-0.6
 41
-30.0
 62
     5
 63
     7
 74
     1
 91
        4
 64
     7
 65
   257
 75
     1
175
     1
 42
1.0
 92
        8
 66
     7
 43
1.0
 76
     1
 77
     6
 78
     2
 67
     7
 79
     5
170
     0
171
     0
290
     0
174
     0
 93
        1
 44
50.0
173
     0
291
     1
 45
0.0
1001
ACAD
1000
AcDbSavedByObjectVersion
1070
     0
  0
VISUALSTYLE
  5
325C
102
{ACAD_REACTORS
330
324C
102
}
330
324C
100
AcDbVisualStyle
  2
ColorChange
 70
    16
 71
     2
 72
     2
 73
     3
 90
        0
 40
-0.6
 41
-30.0
 62
     5
 63
     8
 74
     1
 91
        4
 64
     7
 65
   257
 75
     1
175
     1
 42
1.0
 92
        8
 66
     8
 43
1.0
 76
     1
 77
     6
 78
     2
 67
     7
 79
     5
170
     0
171
     0
290
     0
174
     0
 93
        1
 44
0.0
173
     0
291
     1
 45
0.0
1001
ACAD
1000
AcDbSavedByObjectVersion
1070
     0
  0
VISUALSTYLE
  5
3255
102
{ACAD_REACTORS
330
324C
102
}
330
324C
100
AcDbVisualStyle
  2
Conceptual
 70
     9
 71
     3
 72
     2
 73
     0
 90
        0
 40
-0.6
 41
-30.0
 62
     5
 63
     7
 74
     2
 91
        2
 64
     7
 65
   257
 75
     1
175
     1
 42
40.0
 92
        8
 66
     7
 43
1.0
 76
     1
 77
     6
 78
     2
 67
     7
 79
     3
170
     0
171
     0
290
     0
174
     0
 93
        1
 44
0.0
173
     0
291
     0
 45
0.0
1001
ACAD
1000
AcDbSavedByObjectVersion
1070
     0
  0
VISUALSTYLE
  5
3257
102
{ACAD_REACTORS
330
324C
102
}
330
324C
100
AcDbVisualStyle
  2
Dim
 70
    11
 71
     2
 72
     2
 73
     0
 90
        0
 40
-0.6
 41
-30.0
 62
     5
 63
     7
 74
     1
 91
        4
 64
     7
 65
   257
 75
     1
175
     1
 42
1.0
 92
        8
 66
     7
 43
1.0
 76
     1
 77
     6
 78
     2
 67
     7
 79
     5
170
     0
171
     0
290
     0
174
     0
 93
        1
 44
-50.0
173
     0
291
     1
 45
0.0
1001
ACAD
1000
AcDbSavedByObjectVersion
1070
     0
  0
VISUALSTYLE
  5
325B
102
{ACAD_REACTORS
330
324C
102
}
330
324C
100
AcDbVisualStyle
  2
Facepattern
 70
    15
 71
     2
 72
     2
 73
     0
 90
        0
 40
-0.6
 41
-30.0
 62
     5
 63
     7
 74
     1
 91
        4
 64
     7
 65
   257
 75
     1
175
     1
 42
1.0
 92
        8
 66
     7
 43
1.0
 76
     1
 77
     6
 78
     2
 67
     7
 79
     5
170
     0
171
     0
290
     0
174
     0
 93
        1
 44
0.0
173
     0
291
     1
 45
0.0
1001
ACAD
1000
AcDbSavedByObjectVersion
1070
     0
  0
VISUALSTYLE
  5
324D
102
{ACAD_REACTORS
330
324C
102
}
330
324C
100
AcDbVisualStyle
  2
Flat
 70
     0
 71
     2
 72
     1
 73
     1
 90
        2
 40
-0.6
 41
30.0
 62
     5
 63
     7
 74
     0
 91
        4
 64
     7
 65
   257
 75
     1
175
     1
 42
1.0
 92
        8
 66
     7
 43
1.0
 76
     1
 77
     6
 78
     2
 67
     7
 79
     5
170
     0
171
     0
290
     0
174
     0
 93
       13
 44
0.0
173
     0
291
     1
 45
0.0
1001
ACAD
1000
AcDbSavedByObjectVersion
1070
     0
  0
VISUALSTYLE
  5
324E
102
{ACAD_REACTORS
330
324C
102
}
330
324C
100
AcDbVisualStyle
  2
FlatWithEdges
 70
     1
 71
     2
 72
     1
 73
     1
 90
        2
 40
-0.6
 41
30.0
 62
     5
 63
     7
 74
     1
 91
        4
 64
     7
 65
   257
 75
     1
175
     1
 42
1.0
 92
        0
 66
   257
 43
1.0
 76
     1
 77
     6
 78
     2
 67
     7
 79
     5
170
     0
171
     0
290
     0
174
     0
 93
       13
 44
0.0
173
     0
291
     1
 45
0.0
1001
ACAD
1000
AcDbSavedByObjectVersion
1070
     0
  0
VISUALSTYLE
  5
324F
102
{ACAD_REACTORS
330
324C
102
}
330
324C
100
AcDbVisualStyle
  2
Gouraud
 70
     2
 71
     2
 72
     2
 73
     1
 90
        2
 40
-0.6
 41
30.0
 62
     5
 63
     7
 74
     0
 91
        4
 64
     7
 65
   257
 75
     1
175
     1
 42
1.0
 92
        0
 66
     7
 43
1.0
 76
     1
 77
     6
 78
     2
 67
     7
 79
     5
170
     0
171
     0
290
     0
174
     0
 93
       13
 44
0.0
173
     0
291
     1
 45
0.0
1001
ACAD
1000
AcDbSavedByObjectVersion
1070
     0
  0
VISUALSTYLE
  5
3250
102
{ACAD_REACTORS
330
324C
102
}
330
324C
100
AcDbVisualStyle
  2
GouraudWithEdges
 70
     3
 71
     2
 72
     2
 73
     1
 90
        2
 40
-0.6
 41
30.0
 62
     5
 63
     7
 74
     1
 91
        4
 64
     7
 65
   257
 75
     1
175
     1
 42
1.0
 92
        0
 66
   257
 43
1.0
 76
     1
 77
     6
 78
     2
 67
     7
 79
     5
170
     0
171
     0
290
     0
174
     0
 93
       13
 44
0.0
173
     0
291
     1
 45
0.0
1001
ACAD
1000
AcDbSavedByObjectVersion
1070
     0
  0
VISUALSTYLE
  5
325A
102
{ACAD_REACTORS
330
324C
102
}
330
324C
100
AcDbVisualStyle
  2
Linepattern
 70
    14
 71
     2
 72
     2
 73
     0
 90
        0
 40
-0.6
 41
-30.0
 62
     5
 63
     7
 74
     1
 91
        4
 64
     7
 65
   257
 75
     7
175
     7
 42
1.0
 92
        8
 66
     7
 43
1.0
 76
     1
 77
     6
 78
     2
 67
     7
 79
     5
170
     0
171
     0
290
     0
174
     0
 93
        1
 44
0.0
173
     0
291
     1
 45
0.0
1001
ACAD
1000
AcDbSavedByObjectVersion
1070
     0
  0
VISUALSTYLE
  5
3256
102
{ACAD_REACTORS
330
324C
102
}
330
324C
100
AcDbVisualStyle
  2
Realistic
 70
     8
 71
     2
 72
     2
 73
     0
 90
        0
 40
-0.6
 41
-30.0
 62
     5
 63
     7
 74
     1
 91
        0
 64
     7
 65
   257
 75
     1
175
     1
 42
1.0
 92
        8
 66
     8
 43
1.0
 76
     1
 77
     6
 78
     2
 67
     7
 79
     5
170
     0
171
     0
290
     0
174
     0
 93
       13
 44
0.0
173
     0
291
     0
 45
0.0
1001
ACAD
1000
AcDbSavedByObjectVersion
1070
     0
  0
VISUALSTYLE
  5
3259
102
{ACAD_REACTORS
330
324C
102
}
330
324C
100
AcDbVisualStyle
  2
Thicken
 70
    13
 71
     2
 72
     2
 73
     0
 90
        0
 40
-0.6
 41
-30.0
 62
     5
 63
     7
 74
     1
 91
        4
 64
     7
 65
   257
 75
     1
175
     1
 42
1.0
 92
       12
 66
     7
 43
1.0
 76
     1
 77
     6
 78
     2
 67
     7
 79
     5
170
     0
171
     0
290
     0
174
     0
 93
        1
 44
0.0
173
     0
291
     1
 45
0.0
1001
ACAD
1000
AcDbSavedByObjectVersion
1070
     0
  0
DICTIONARYVAR
  5
3292
102
{ACAD_REACTORS
330
19E
102
}
330
19E
100
DictionaryVariables
280
     0
  1
1:1
  0
DICTIONARYVAR
  5
3291
102
{ACAD_REACTORS
330
19E
102
}
330
19E
100
DictionaryVariables
280
     0
  1
STANDARD
  0
DICTIONARYVAR
  5
3290
102
{ACAD_REACTORS
330
19E
102
}
330
19E
100
DictionaryVariables
280
     0
  1
STANDARD
  0
DICTIONARYVAR
  5
19F
102
{ACAD_REACTORS
330
19E
102
}
330
19E
100
DictionaryVariables
280
     0
  1
1
  0
DICTIONARYVAR
  5
3294
102
{ACAD_REACTORS
330
19E
102
}
330
19E
100
DictionaryVariables
280
     0
  1
0
  0
DICTIONARYVAR
  5
1A0
102
{ACAD_REACTORS
330
19E
102
}
330
19E
100
DictionaryVariables
280
     0
  1

  0
DICTIONARYVAR
  5
3293
102
{ACAD_REACTORS
330
19E
102
}
330
19E
100
DictionaryVariables
280
     0
  1
127
  0
XRECORD
  5
2BC
102
{ACAD_REACTORS
330
2BA
102
}
330
2BA
100
AcDbXrecord
280
     1
  0
DICTIONARY
  5
32AB
330
17B
100
AcDbDictionary
280
     1
281
     1
  3
ACAD_XREC_ROUNDTRIP
360
32AC
  0
DICTIONARY
  5
32AD
330
17C
100
AcDbDictionary
280
     1
281
     1
  3
ACAD_XREC_ROUNDTRIP
360
32AE
  0
DICTIONARY
  5
3245
330
3244
100
AcDbDictionary
280
     1
281
     1
  3
ACAD_XREC_ROUNDTRIP
360
32B1
  3
BUMPTILE
360
3247
  3
DIFFUSETILE
360
3246
  3
OPACITYTILE
360
324A
  3
REFLECTIONTILE
360
3249
  3
REFRACTIONTILE
360
324B
  3
SPECULARTILE
360
3248
  0
DICTIONARY
  5
323D
330
323C
100
AcDbDictionary
280
     1
281
     1
  3
ACAD_XREC_ROUNDTRIP
360
32B0
  3
BUMPTILE
360
323F
  3
DIFFUSETILE
360
323E
  3
OPACITYTILE
360
3242
  3
REFLECTIONTILE
360
3241
  3
REFRACTIONTILE
360
3243
  3
SPECULARTILE
360
3240
  0
DICTIONARY
  5
9C1
330
9C0
100
AcDbDictionary
280
     1
281
     1
  3
ACAD_XREC_ROUNDTRIP
360
32AF
  3
BUMPTILE
360
9C3
  3
DIFFUSETILE
360
9C4
  3
OPACITYTILE
360
9C5
  3
REFLECTIONTILE
360
9C6
  3
REFRACTIONTILE
360
9C7
  3
SPECULARTILE
360
9C8
  0
DICTIONARY
  5
32A7
330
325E
100
AcDbDictionary
280
     1
281
     1
  3
ACAD_ROUNDTRIP_2008_TABLESTYLE_CELLSTYLEMAP
360
32A8
  3
ACAD_XREC_ROUNDTRIP
360
32B2
  0
XRECORD
  5
32AC
102
{ACAD_REACTORS
330
32AB
102
}
330
32AB
100
AcDbXrecord
280
     1
102
SHADEPLOT
 70
     1
102
SHADEPLOTRESLEVEL
 70
     2
102
SHADEPLOTCUSTOMDPI
 70
   300
  0
XRECORD
  5
32AE
102
{ACAD_REACTORS
330
32AD
102
}
330
32AD
100
AcDbXrecord
280
     1
102
SHADEPLOT
 70
     0
102
SHADEPLOTRESLEVEL
 70
     2
102
SHADEPLOTCUSTOMDPI
 70
   300
  0
XRECORD
  5
32B1
102
{ACAD_REACTORS
330
3245
102
}
330
3245
100
AcDbXrecord
280
     1
102
MATERIAL
148
0.0
149
0.0
149
0.0
 93
        0
 94
      127
282
     0
 72
     0
 77
     0
171
     0
175
     0
179
     0
273
     0
  0
XRECORD
  5
3247
102
{ACAD_REACTORS
330
3245
102
}
330
3245
100
AcDbXrecord
280
     1
270
     1
271
     1
  0
XRECORD
  5
3246
102
{ACAD_REACTORS
330
3245
102
}
330
3245
100
AcDbXrecord
280
     1
270
     1
271
     1
  0
XRECORD
  5
324A
102
{ACAD_REACTORS
330
3245
102
}
330
3245
100
AcDbXrecord
280
     1
270
     1
271
     1
  0
XRECORD
  5
3249
102
{ACAD_REACTORS
330
3245
102
}
330
3245
100
AcDbXrecord
280
     1
270
     1
271
     1
  0
XRECORD
  5
324B
102
{ACAD_REACTORS
330
3245
102
}
330
3245
100
AcDbXrecord
280
     1
270
     1
271
     1
  0
XRECORD
  5
3248
102
{ACAD_REACTORS
330
3245
102
}
330
3245
100
AcDbXrecord
280
     1
270
     1
271
     1
  0
XRECORD
  5
32B0
102
{ACAD_REACTORS
330
323D
102
}
330
323D
100
AcDbXrecord
280
     1
102
MATERIAL
148
0.0
149
0.0
149
0.0
 93
        0
 94
      127
282
     0
 72
     0
 77
     0
171
     0
175
     0
179
     0
273
     0
  0
XRECORD
  5
323F
102
{ACAD_REACTORS
330
323D
102
}
330
323D
100
AcDbXrecord
280
     1
270
     1
271
     1
  0
XRECORD
  5
323E
102
{ACAD_REACTORS
330
323D
102
}
330
323D
100
AcDbXrecord
280
     1
270
     1
271
     1
  0
XRECORD
  5
3242
102
{ACAD_REACTORS
330
323D
102
}
330
323D
100
AcDbXrecord
280
     1
270
     1
271
     1
  0
XRECORD
  5
3241
102
{ACAD_REACTORS
330
323D
102
}
330
323D
100
AcDbXrecord
280
     1
270
     1
271
     1
  0
XRECORD
  5
3243
102
{ACAD_REACTORS
330
323D
102
}
330
323D
100
AcDbXrecord
280
     1
270
     1
271
     1
  0
XRECORD
  5
3240
102
{ACAD_REACTORS
330
323D
102
}
330
323D
100
AcDbXrecord
280
     1
270
     1
271
     1
  0
XRECORD
  5
32AF
102
{ACAD_REACTORS
330
9C1
102
}
330
9C1
100
AcDbXrecord
280
     1
102
MATERIAL
148
0.0
149
0.0
149
0.0
 93
        0
 94
      127
282
     0
 72
     0
 77
     0
171
     0
175
     0
179
     0
273
     0
  0
XRECORD
  5
9C3
102
{ACAD_REACTORS
330
9C1
102
}
330
9C1
100
AcDbXrecord
280
     1
270
     1
271
     1
  0
XRECORD
  5
9C4
102
{ACAD_REACTORS
330
9C1
102
}
330
9C1
100
AcDbXrecord
280
     1
270
     1
271
     1
  0
XRECORD
  5
9C5
102
{ACAD_REACTORS
330
9C1
102
}
330
9C1
100
AcDbXrecord
280
     1
270
     1
271
     1
  0
XRECORD
  5
9C6
102
{ACAD_REACTORS
330
9C1
102
}
330
9C1
100
AcDbXrecord
280
     1
270
     1
271
     1
  0
XRECORD
  5
9C7
102
{ACAD_REACTORS
330
9C1
102
}
330
9C1
100
AcDbXrecord
280
     1
270
     1
271
     1
  0
XRECORD
  5
9C8
102
{ACAD_REACTORS
330
9C1
102
}
330
9C1
100
AcDbXrecord
280
     1
270
     1
271
     1
  0
CELLSTYLEMAP
  5
32A8
102
{ACAD_REACTORS
330
32A7
102
}
330
32A7
100
AcDbCellStyleMap
 90
        3
300
CELLSTYLE
  1
TABLEFORMAT_BEGIN
 90
        5
170
     1
 91
        0
 92
    32768
 62
   257
 93
        1
300
CONTENTFORMAT
  1
CONTENTFORMAT_BEGIN
 90
        0
 91
        0
 92
      512
 93
        0
300

 40
0.0
140
1.0
 94
        5
 62
     0
340
F
144
6.0
309
CONTENTFORMAT_END
171
     1
301
MARGIN
  1
CELLMARGIN_BEGIN
 40
1.5
 40
1.5
 40
1.5
 40
1.5
 40
4.5
 40
4.5
309
CELLMARGIN_END
 94
        6
 95
        1
302
GRIDFORMAT
  1
GRIDFORMAT_BEGIN
 90
        0
 91
        1
 62
     0
 92
       -2
340
0
 93
        0
 40
1.125
309
GRIDFORMAT_END
 95
        2
302
GRIDFORMAT
  1
GRIDFORMAT_BEGIN
 90
        0
 91
        1
 62
     0
 92
       -2
340
0
 93
        0
 40
1.125
309
GRIDFORMAT_END
 95
        4
302
GRIDFORMAT
  1
GRIDFORMAT_BEGIN
 90
        0
 91
        1
 62
     0
 92
       -2
340
0
 93
        0
 40
1.125
309
GRIDFORMAT_END
 95
        8
302
GRIDFORMAT
  1
GRIDFORMAT_BEGIN
 90
        0
 91
        1
 62
     0
 92
       -2
340
0
 93
        0
 40
1.125
309
GRIDFORMAT_END
 95
       16
302
GRIDFORMAT
  1
GRIDFORMAT_BEGIN
 90
        0
 91
        1
 62
     0
 92
       -2
340
0
 93
        0
 40
1.125
309
GRIDFORMAT_END
 95
       32
302
GRIDFORMAT
  1
GRIDFORMAT_BEGIN
 90
        0
 91
        1
 62
     0
 92
       -2
340
0
 93
        0
 40
1.125
309
GRIDFORMAT_END
309
TABLEFORMAT_END
  1
CELLSTYLE_BEGIN
 90
        1
 91
        1
300
_TITLE
309
CELLSTYLE_END
300
CELLSTYLE
  1
TABLEFORMAT_BEGIN
 90
        5
170
     1
 91
        0
 92
        0
 62
   257
 93
        1
300
CONTENTFORMAT
  1
CONTENTFORMAT_BEGIN
 90
        0
 91
        0
 92
      512
 93
        0
300

 40
0.0
140
1.0
 94
        5
 62
     0
340
F
144
4.5
309
CONTENTFORMAT_END
171
     1
301
MARGIN
  1
CELLMARGIN_BEGIN
 40
1.5
 40
1.5
 40
1.5
 40
1.5
 40
4.5
 40
4.5
309
CELLMARGIN_END
 94
        6
 95
        1
302
GRIDFORMAT
  1
GRIDFORMAT_BEGIN
 90
        0
 91
        1
 62
     0
 92
       -2
340
0
 93
        0
 40
1.125
309
GRIDFORMAT_END
 95
        2
302
GRIDFORMAT
  1
GRIDFORMAT_BEGIN
 90
        0
 91
        1
 62
     0
 92
       -2
340
0
 93
        0
 40
1.125
309
GRIDFORMAT_END
 95
        4
302
GRIDFORMAT
  1
GRIDFORMAT_BEGIN
 90
        0
 91
        1
 62
     0
 92
       -2
340
0
 93
        0
 40
1.125
309
GRIDFORMAT_END
 95
        8
302
GRIDFORMAT
  1
GRIDFORMAT_BEGIN
 90
        0
 91
        1
 62
     0
 92
       -2
340
0
 93
        0
 40
1.125
309
GRIDFORMAT_END
 95
       16
302
GRIDFORMAT
  1
GRIDFORMAT_BEGIN
 90
        0
 91
        1
 62
     0
 92
       -2
340
0
 93
        0
 40
1.125
309
GRIDFORMAT_END
 95
       32
302
GRIDFORMAT
  1
GRIDFORMAT_BEGIN
 90
        0
 91
        1
 62
     0
 92
       -2
340
0
 93
        0
 40
1.125
309
GRIDFORMAT_END
309
TABLEFORMAT_END
  1
CELLSTYLE_BEGIN
 90
        2
 91
        1
300
_HEADER
309
CELLSTYLE_END
300
CELLSTYLE
  1
TABLEFORMAT_BEGIN
 90
        5
170
     1
 91
        0
 92
        0
 62
   257
 93
        1
300
CONTENTFORMAT
  1
CONTENTFORMAT_BEGIN
 90
        0
 91
        0
 92
      512
 93
        0
300

 40
0.0
140
1.0
 94
        2
 62
     0
340
F
144
4.5
309
CONTENTFORMAT_END
171
     1
301
MARGIN
  1
CELLMARGIN_BEGIN
 40
1.5
 40
1.5
 40
1.5
 40
1.5
 40
4.5
 40
4.5
309
CELLMARGIN_END
 94
        6
 95
        1
302
GRIDFORMAT
  1
GRIDFORMAT_BEGIN
 90
        0
 91
        1
 62
     0
 92
       -2
340
0
 93
        0
 40
1.125
309
GRIDFORMAT_END
 95
        2
302
GRIDFORMAT
  1
GRIDFORMAT_BEGIN
 90
        0
 91
        1
 62
     0
 92
       -2
340
0
 93
        0
 40
1.125
309
GRIDFORMAT_END
 95
        4
302
GRIDFORMAT
  1
GRIDFORMAT_BEGIN
 90
        0
 91
        1
 62
     0
 92
       -2
340
0
 93
        0
 40
1.125
309
GRIDFORMAT_END
 95
        8
302
GRIDFORMAT
  1
GRIDFORMAT_BEGIN
 90
        0
 91
        1
 62
     0
 92
       -2
340
0
 93
        0
 40
1.125
309
GRIDFORMAT_END
 95
       16
302
GRIDFORMAT
  1
GRIDFORMAT_BEGIN
 90
        0
 91
        1
 62
     0
 92
       -2
340
0
 93
        0
 40
1.125
309
GRIDFORMAT_END
 95
       32
302
GRIDFORMAT
  1
GRIDFORMAT_BEGIN
 90
        0
 91
        1
 62
     0
 92
       -2
340
0
 93
        0
 40
1.125
309
GRIDFORMAT_END
309
TABLEFORMAT_END
  1
CELLSTYLE_BEGIN
 90
        3
 91
        2
300
_DATA
309
CELLSTYLE_END
  0
XRECORD
  5
32B2
102
{ACAD_REACTORS
330
32A7
102
}
330
32A7
100
AcDbXrecord
280
     1
102
ACAD_ROUNDTRIP_PRE2007_TABLESTYLE
 90
      512
 91
        0
  1

 92
      512
 93
        0
  2

 94
      512
 95
        0
  3

  0
ENDSEC
  0
EOF
